<?xml version="1.0" standalone="no"?>
<!DOCTYPE svg PUBLIC "-//W3C//DTD SVG 1.1//EN" "http://www.w3.org/Graphics/SVG/1.1/DTD/svg11.dtd" >
<svg xmlns="http://www.w3.org/2000/svg">
<metadata>
<json>
<![CDATA[
{
	"fontFamily": "icomoon",
	"description": "Font generated by IcoMoon.",
	"version": "Version 1.0",
	"majorVersion": 0,
	"fontId": "icomoon",
	"psName": "icomoon",
	"subFamily": "Regular",
	"fullName": "icomoon"
}
]]>
</json>
</metadata>
<defs>
<font id="icomoon" horiz-adv-x="1024">
<font-face units-per-em="1024" ascent="960" descent="-64" />
<missing-glyph horiz-adv-x="1024" />
<glyph unicode="&#x20;" horiz-adv-x="512" d="" />
<glyph unicode="&#xe900;" glyph-name="Unavailable" data-tags="Unavailable" d="M277.333 256v533.333c0 35.346 28.654 64 64 64h512c35.346 0 64-28.654 64-64v-640c0-58.248-46.689-105.592-104.685-106.649-0.331-0.012-0.666-0.018-1.005-0.018h-598.31c-58.91 0-106.667 47.756-106.667 106.667v42.667c0 35.346 28.654 64 64 64h106.667zM320 256h362.667c35.346 0 64-28.654 64-64v-42.667c0-35.346 28.654-64 64-64s64 28.654 64 64v640c0 11.782-9.551 21.333-21.333 21.333h-512c-11.782 0-21.333-9.551-21.333-21.333v-533.333zM704 149.333v42.667c0 11.782-9.551 21.333-21.333 21.333h-512c-11.782 0-21.333-9.551-21.333-21.333v-42.667c0-35.346 28.654-64 64-64h511.992c-13.391 17.827-21.326 39.987-21.326 64zM574.392 436.834c0 11.782 9.551 21.333 21.333 21.333s21.333-9.551 21.333-21.333v-6.814c0-11.782-9.551-21.333-21.333-21.333s-21.333 9.551-21.333 21.333v6.814zM574.392 624.469c0 11.782 9.551 21.333 21.333 21.333s21.333-9.551 21.333-21.333v-128c0-11.782-9.551-21.333-21.333-21.333s-21.333 9.551-21.333 21.333v128zM595.221 334.945c-106.039 0-192 85.961-192 192s85.961 192 192 192c106.039 0 192-85.961 192-192s-85.961-192-192-192zM595.221 377.612c82.475 0 149.333 66.859 149.333 149.333s-66.859 149.333-149.333 149.333c-82.475 0-149.333-66.859-149.333-149.333s66.859-149.333 149.333-149.333z" />
<glyph unicode="&#xe901;" glyph-name="add" data-tags="add" d="M464 400h-260.513c-26.51 0-48 21.49-48 48s21.49 48 48 48h260.513v260.513c0 26.51 21.49 48 48 48s48-21.49 48-48v-260.513h260.513c26.51 0 48-21.49 48-48s-21.49-48-48-48h-260.513v-260.513c0-26.51-21.49-48-48-48s-48 21.49-48 48v260.513z" />
<glyph unicode="&#xe902;" glyph-name="babycare" data-tags="baby care" d="M301.117 159.689c-77.016 58.161-126.717 149.911-126.717 253.169 0 157.235 115.244 287.786 266.691 313.69 21.201 7.927 26.144 18.961 30.018 45.301 0.419 2.861 0.419 2.861 0.865 5.847 6.097 40.28-11.214 59.561-40.849 59.561-35.986 0-42.133-43.113-7.767-49.905 8.669-1.713 14.307-10.13 12.594-18.799s-10.13-14.307-18.799-12.594c-73.582 14.543-59.501 113.298 13.972 113.298 48.899 0 81.565-36.383 72.488-96.35-0.424-2.839-0.424-2.839-0.845-5.714-1.226-8.335-2.738-15.81-4.718-22.537 24.754 16.141 36.637 44.654 36.637 87.118 0 8.837 7.163 16 16 16s16-7.163 16-16c0-38.567-9.050-69.359-26.771-91.767 26.952 11.345 44.619 32.043 53.957 62.389 2.599 8.446 11.552 13.186 19.998 10.587s13.186-11.552 10.587-19.998c-9.648-31.354-26.724-55.079-50.737-71.023 140.402-34.258 244.561-159.623 244.561-309.104 0-100.064-46.675-189.322-119.651-247.677v-140.578c0-12.552-12.763-21.069-24.354-16.252l-177.803 73.89-170.777-73.794c-11.62-5.021-24.581 3.498-24.581 16.156v135.086zM337.111 136.101l-0.794 0.266v-84.986l108.988 47.095c-38.812 6.114-75.314 19.087-108.194 37.626zM351.578 168.378l109.049-36.506c11.7-1.435 23.62-2.175 35.715-2.175 11.237 0 22.324 0.638 33.223 1.88l119.791 41.762c80.371 50.177 133.727 138.712 133.727 239.519 0 156.339-128.332 283.161-286.742 283.161s-286.742-126.822-286.742-283.161c0-104.218 57.028-195.32 141.978-244.48zM663.432 140.68c-34.533-20.775-73.33-35.304-114.785-42.002l114.785-47.702v89.704zM496.342 201.912c-33.686 0-61.077 27.069-61.077 60.566s27.392 60.566 61.077 60.566c33.686 0 61.077-27.069 61.077-60.566s-27.392-60.566-61.077-60.566zM496.342 237.112c14.338 0 25.877 11.404 25.877 25.366s-11.539 25.366-25.877 25.366c-14.338 0-25.877-11.404-25.877-25.366s11.539-25.366 25.877-25.366zM305.135 437.72c6.833 36.335 27.998 57.191 60.774 57.191s53.941-20.856 60.774-57.191c1.797-9.553-4.491-18.753-14.044-20.55s-18.753 4.491-20.55 14.044c-3.91 20.79-11.73 28.496-26.181 28.496s-22.271-7.707-26.181-28.496c-1.797-9.553-10.997-15.84-20.55-14.044s-15.84 10.997-14.044 20.55zM566 437.72c6.833 36.335 27.998 57.191 60.774 57.191s53.941-20.856 60.774-57.191c1.797-9.553-4.491-18.753-14.044-20.55s-18.753 4.491-20.55 14.044c-3.91 20.79-11.73 28.496-26.181 28.496s-22.271-7.707-26.181-28.496c-1.797-9.553-10.997-15.84-20.55-14.044s-15.84 10.997-14.044 20.55z" />
<glyph unicode="&#xe903;" glyph-name="Backarrow" data-tags="Back arrow" d="M237.774 475.733h610.604c15.317 0 27.733-12.417 27.733-27.733s-12.417-27.733-27.733-27.733h-609.163l165.517-166.009c10.814-10.847 10.788-28.406-0.058-39.221s-28.406-10.788-39.221 0.058l-213.613 214.248c-10.825 10.857-10.787 28.438 0.085 39.248l213.613 212.399c10.861 10.8 28.421 10.75 39.221-0.112s10.75-28.421-0.112-39.221l-166.873-165.924z" />
<glyph unicode="&#xe904;" glyph-name="Bakery" data-tags="Bakery" d="M622.319 616.266c10.511 14.038 16.76 31.588 16.76 50.651 0 46.18-36.661 83.484-81.741 83.484-45.071 0-81.731-37.305-81.731-83.484 0-19.318 6.418-37.084 17.185-51.215 14.966-19.641 38.334-32.259 64.546-32.259 26.467 0 50.033 12.859 64.981 32.823zM463.257 580.373c-18.665-23.509-55.203-34.132-96.011-13.37-7.322 3.725-14.23 8.029-20.739 12.862l-90.849-0.396c-43.165-0.188-78.059-35.233-78.059-78.399v-136.63h693.262v138.966l-0.001 0.341c-0.189 43.299-35.442 78.246-78.741 78.058l-153.971-0.67c-20.986-20.37-49.443-32.892-80.812-32.892-31.003 0-59.162 12.235-80.075 32.191l-14.006-0.061zM312.062 614.915c-2.347 3.194-4.61 6.484-6.792 9.865-10.082 15.622-17.827 32.243-23.582 48.86-3.479 10.045-5.553 17.995-6.508 22.851-1.972 10.021 4.971 19.611 15.107 20.865 1.375 0.17 3.713 0.4 6.903 0.621 28.812 1.997 61.759-0.429 93.552-10.885 18.787-6.179 35.772-14.876 50.442-26.434 6.707 59.025 56.092 104.943 116.155 104.943 64.659 0 116.941-53.199 116.941-118.684 0-18.042-3.97-35.151-11.074-50.472l128.763 0.561c62.739 0.273 113.82-50.365 114.094-113.104 0.001-0.247 0.001-0.247 0.001-0.495v-279.57c0-62.74-50.86-113.6-113.6-113.6h-536.462c-62.74 0-113.6 50.86-113.6 113.6v277.233c0 62.546 50.559 113.327 113.105 113.599l56.556 0.246zM870.862 329.24h-693.262v-105.403c0-43.299 35.101-78.4 78.4-78.4h536.462c43.299 0 78.4 35.101 78.4 78.4v105.403zM259.723 532.279c3.921 5.882 11.868 7.471 17.75 3.55s7.471-11.868 3.55-17.75l-22.075-33.112c-3.921-5.882-11.868-7.471-17.75-3.55s-7.471 11.868-3.55 17.75l22.075 33.112zM370.096 532.279c3.921 5.882 11.868 7.471 17.75 3.55s7.471-11.868 3.55-17.75l-22.075-33.112c-3.921-5.882-11.868-7.471-17.75-3.55s-7.471 11.868-3.55 17.75l22.075 33.112zM524.618 510.205c3.921 5.882 11.868 7.471 17.75 3.55s7.471-11.868 3.55-17.75l-22.075-33.112c-3.921-5.882-11.868-7.471-17.75-3.55s-7.471 11.868-3.55 17.75l22.075 33.112zM679.14 510.205c3.921 5.882 11.868 7.471 17.75 3.55s7.471-11.868 3.55-17.75l-22.075-33.112c-3.921-5.882-11.868-7.471-17.75-3.55s-7.471 11.868-3.55 17.75l22.075 33.112zM282.833 450.506c-4.667 5.31-4.145 13.398 1.165 18.064s13.398 4.145 18.064-1.165l26.27-29.892c4.667-5.31 4.145-13.398-1.165-18.064s-13.398-4.145-18.064 1.165l-26.27 29.892zM724.325 450.506c-4.667 5.31-4.145 13.398 1.165 18.064s13.398 4.145 18.064-1.165l26.27-29.892c4.667-5.31 4.145-13.398-1.165-18.064s-13.398-4.145-18.064 1.165l-26.27 29.892zM437.355 450.506c-4.667 5.31-4.145 13.398 1.165 18.064s13.398 4.145 18.064-1.165l26.27-29.892c4.667-5.31 4.145-13.398-1.165-18.064s-13.398-4.145-18.064 1.165l-26.27 29.892zM768.474 516.73c-4.667 5.31-4.145 13.398 1.165 18.064s13.398 4.145 18.064-1.165l26.27-29.892c4.667-5.31 4.145-13.398-1.165-18.064s-13.398-4.145-18.064 1.165l-26.27 29.892zM591.878 450.506c-4.667 5.31-4.145 13.398 1.165 18.064s13.398 4.145 18.064-1.165l26.27-29.892c4.667-5.31 4.145-13.398-1.165-18.064s-13.398-4.145-18.064 1.165l-26.27 29.892zM334.845 643.867c12.891-19.973 28.916-35.597 48.364-45.491 48.544-24.698 79.604 18.632 38.301 52.924-11.679 9.697-25.745 17.084-41.766 22.353-21.174 6.964-43.547 9.741-64.179 9.752 4.821-13.53 11.198-27.016 19.28-39.538z" />
<glyph unicode="&#xe905;" glyph-name="camerafilled" data-tags="camera filled" d="M257.061 689.067h513.149c86.009 0 155.733-69.724 155.733-155.733v-341.333c0-86.009-69.724-155.733-155.733-155.733h-513.149c-86.009 0-155.733 69.724-155.733 155.733v341.333c0 86.009 69.724 155.733 155.733 155.733zM513.635 185.6c97.791 0 177.067 79.275 177.067 177.067s-79.275 177.067-177.067 177.067c-97.791 0-177.067-79.275-177.067-177.067s79.275-177.067 177.067-177.067zM513.635 241.067c-67.158 0-121.6 54.442-121.6 121.6s54.442 121.6 121.6 121.6c67.158 0 121.6-54.442 121.6-121.6s-54.442-121.6-121.6-121.6zM243.97 529.074h46.723c15.317 0 27.733 12.417 27.733 27.733s-12.417 27.733-27.733 27.733h-46.723c-15.317 0-27.733-12.417-27.733-27.733s12.417-27.733 27.733-27.733zM619.361 732.178c-15.317 0-27.733 12.417-27.733 27.733s12.417 27.733 27.733 27.733h127.305c15.317 0 27.733-12.417 27.733-27.733s-12.417-27.733-27.733-27.733h-127.305z" />
<glyph unicode="&#xe906;" glyph-name="cameraoutline" data-tags="camera outline" d="M214.394 633.6c-31.812 0-57.6-25.788-57.6-57.6v-426.667c0-31.812 25.788-57.6 57.6-57.6h598.483c31.812 0 57.6 25.788 57.6 57.6v426.667c0 31.812-25.788 57.6-57.6 57.6h-598.483zM214.394 689.067h598.483c62.445 0 113.067-50.622 113.067-113.067v-426.667c0-62.445-50.622-113.067-113.067-113.067h-598.483c-62.445 0-113.067 50.622-113.067 113.067v426.667c0 62.445 50.622 113.067 113.067 113.067zM513.635 185.6c-97.791 0-177.067 79.275-177.067 177.067s79.275 177.067 177.067 177.067c97.791 0 177.067-79.275 177.067-177.067s-79.275-177.067-177.067-177.067zM513.635 241.067c67.158 0 121.6 54.442 121.6 121.6s-54.442 121.6-121.6 121.6c-67.158 0-121.6-54.442-121.6-121.6s54.442-121.6 121.6-121.6zM246.535 528.288c-15.317 0-27.733 12.417-27.733 27.733s12.417 27.733 27.733 27.733h46.723c15.317 0 27.733-12.417 27.733-27.733s-12.417-27.733-27.733-27.733h-46.723zM619.361 731.308c-15.317 0-27.733 12.417-27.733 27.733s12.417 27.733 27.733 27.733h171.105c15.317 0 27.733-12.417 27.733-27.733s-12.417-27.733-27.733-27.733h-171.105z" />
<glyph unicode="&#xe907;" glyph-name="Cancel" data-tags="Cancel" d="M569.657 448l259.688-258.919c16.27-16.222 16.309-42.561 0.087-58.831s-42.561-16.309-58.831-0.087l-259.735 258.966-257.367-258.838c-16.199-16.292-42.539-16.367-58.831-0.168s-16.367 42.539-0.168 58.831l257.573 259.047-257.573 259.047c-16.199 16.292-16.124 42.632 0.168 58.831s42.632 16.124 58.831-0.168l257.367-258.838 259.735 258.966c16.27 16.222 42.61 16.183 58.831-0.087s16.183-42.61-0.087-58.831l-259.688-258.919z" />
<glyph unicode="&#xe908;" glyph-name="Confirmitems" data-tags="Confirm items" d="M260.088 640h-85.3c-0.655 0-1.309-0.030-1.961-0.090-11.732-1.083-20.365-11.472-19.282-23.204l43.323-469.333c1.013-10.976 10.221-19.372 21.243-19.372h587.781c11.022 0 20.23 8.397 21.243 19.372l43.323 469.333c0.060 0.652 0.090 1.306 0.090 1.961 0 11.782-9.551 21.333-21.333 21.333h-74.619c-0.992-0.070-1.992-0.071-2.993 0h-508.522c-1.001-0.071-2.001-0.070-2.993 0zM274.87 682.667h484.944l35.82 73.36c5.17 10.587 17.943 14.979 28.531 9.81s14.979-17.943 9.81-28.531l-26.679-54.64h41.92c35.346 0 64-28.654 64-64 0-1.964-0.090-3.927-0.271-5.883l-43.323-469.333c-3.039-32.927-30.662-58.117-63.729-58.117h-587.781c-33.067 0-60.69 25.19-63.729 58.117l-43.323 469.333c-3.249 35.197 22.65 66.363 57.846 69.612 1.956 0.181 3.919 0.271 5.883 0.271h52.601l-26.679 54.64c-5.17 10.587-0.778 23.361 9.81 28.531s23.361 0.778 28.531-9.81l35.82-73.36zM512 192c-106.039 0-192 85.961-192 192s85.961 192 192 192c106.039 0 192-85.961 192-192s-85.961-192-192-192zM512 234.667c82.475 0 149.333 66.859 149.333 149.333s-66.859 149.333-149.333 149.333c-82.475 0-149.333-66.859-149.333-149.333s66.859-149.333 149.333-149.333zM575.085 434.363c8.508 8.15 22.013 7.86 30.163-0.648s7.86-22.013-0.648-30.163l-100.586-96.353c-8.396-8.043-21.687-7.881-29.885 0.363l-48.748 49.025c-8.308 8.355-8.269 21.862 0.086 30.17s21.862 8.269 30.17-0.085l33.984-34.177 85.465 81.868z" />
<glyph unicode="&#xe909;" glyph-name="darkgrey" data-tags="dark grey" d="M770.218 241.947l223.065-223.492c14.427-14.455 14.405-37.868-0.050-52.294s-37.868-14.405-52.294 0.050l-224.224 224.653c-73.953-59.343-168.259-94.9-270.937-94.9-237.294 0-429.867 189.907-429.867 424.429s192.572 424.429 429.867 424.429c237.294 0 429.867-189.907 429.867-424.429 0-106.573-39.767-203.933-105.426-278.445zM445.778 169.919c196.679 0 355.911 157.028 355.911 350.473s-159.232 350.473-355.911 350.473c-196.679 0-355.911-157.028-355.911-350.473s159.232-350.473 355.911-350.473z" />
<glyph unicode="&#xe90a;" glyph-name="Delivered" data-tags="Delivered" d="M277.333 256v533.333c0 35.346 28.654 64 64 64h512c35.346 0 64-28.654 64-64v-640c0-58.248-46.689-105.592-104.685-106.649-0.331-0.012-0.666-0.018-1.005-0.018h-598.31c-58.91 0-106.667 47.756-106.667 106.667v42.667c0 35.346 28.654 64 64 64h106.667zM320 256h362.667c35.346 0 64-28.654 64-64v-42.667c0-35.346 28.654-64 64-64s64 28.654 64 64v640c0 11.782-9.551 21.333-21.333 21.333h-512c-11.782 0-21.333-9.551-21.333-21.333v-533.333zM518.312 390.185c-8.366 8.296-8.423 21.803-0.127 30.17s21.803 8.423 30.17 0.127c27.117-26.889 70.841-26.889 97.957 0 8.366 8.296 21.874 8.239 30.17-0.127s8.239-21.874-0.127-30.17c-43.749-43.383-114.293-43.383-158.043 0zM490.667 661.333c0 11.782 9.551 21.333 21.333 21.333s21.333-9.551 21.333-21.333v-106.667c0-11.782-9.551-21.333-21.333-21.333s-21.333 9.551-21.333 21.333v106.667zM661.333 661.333c0 11.782 9.551 21.333 21.333 21.333s21.333-9.551 21.333-21.333v-106.667c0-11.782-9.551-21.333-21.333-21.333s-21.333 9.551-21.333 21.333v106.667zM704 149.333v42.667c0 11.782-9.551 21.333-21.333 21.333h-512c-11.782 0-21.333-9.551-21.333-21.333v-42.667c0-35.346 28.654-64 64-64h511.992c-13.391 17.827-21.326 39.987-21.326 64z" />
<glyph unicode="&#xe90b;" glyph-name="Deliverypicked" data-tags="Delivery picked" d="M204.357 451.82c-41.485 37.718-67.527 92.118-67.527 152.608 0 113.903 92.334 206.238 206.238 206.238 113.879 0 206.208-92.34 206.208-206.238 0-42.292-12.73-81.608-34.567-114.327 50.845-30.778 92.946-79.3 118.955-135.973l37.318 353.545h-53.834c-11.782 0-21.333 9.551-21.333 21.333s9.551 21.333 21.333 21.333h219.297c50.127 0 90.752-40.625 90.752-90.752 0-46.69-35.284-85.167-80.646-90.195l79.105-292.603c11.142-25.472 17.504-53.113 17.504-80.436 0-89.386-72.463-161.86-161.86-161.86s-161.86 72.474-161.86 161.86c0 0.187 0 0.374 0.001 0.562h-68.403c0.001-0.187 0.001-0.374 0.001-0.562 0-89.386-72.463-161.86-161.86-161.86s-161.86 72.474-161.86 161.86c0 0.187 0 0.374 0.001 0.562h-99.32c-11.782 0-21.333 9.551-21.333 21.333v8.718c0 85.449 38.568 168.238 97.69 224.854zM487.051 456.81c-37.163-36.253-87.965-58.589-143.983-58.589-37.787 0-73.199 10.158-103.653 27.892-50.871-45.925-86.031-114.633-89.754-186.531h469.452c-4.685 90.474-59.151 175.9-132.062 217.228zM508.371 196.916h-238.384c-0.001-0.187-0.001-0.374-0.001-0.562 0-65.823 53.362-119.193 119.193-119.193s119.193 53.37 119.193 119.193c0 0.187 0 0.374-0.001 0.562zM900.491 196.916h-238.384c-0.001-0.187-0.001-0.374-0.001-0.562 0-65.823 53.362-119.193 119.193-119.193s119.193 53.37 119.193 119.193c0 0.187 0 0.374-0.001 0.562zM837.816 611.523c25.917 0.727 46.713 21.98 46.713 48.066 0 26.562-21.523 48.085-48.085 48.085h-26.24l27.611-96.151zM506.609 604.429c0 90.335-73.228 163.571-163.541 163.571-90.339 0-163.571-73.232-163.571-163.571 0-90.332 73.225-163.541 163.571-163.541 90.32 0 163.541 73.213 163.541 163.541zM263.734 642.555c0 14.451 11.705 26.126 26.126 26.126s26.126-11.675 26.126-26.126c0-14.451-11.705-26.126-26.126-26.126s-26.126 11.675-26.126 26.126zM384.387 642.555c0 14.451 11.705 26.126 26.126 26.126s26.126-11.675 26.126-26.126c0-14.451-11.705-26.126-26.126-26.126s-26.126 11.675-26.126 26.126zM246.151 535.948c-6.672 9.711-4.208 22.992 5.502 29.664s22.992 4.208 29.664-5.502c2.559-3.724 8.278-10.211 16.607-16.766 13.542-10.657 28.719-16.881 45.365-16.881 20.823 0 37.939 6.381 51.955 17.076 8.283 6.32 13.516 12.454 15.599 15.79 6.241 9.994 19.401 13.036 29.395 6.795s13.036-19.401 6.795-29.395c-4.614-7.389-13.106-17.343-25.906-27.11-21.121-16.117-47.159-25.824-77.838-25.824-27.174 0-51.22 9.863-71.751 26.019-12.114 9.533-20.578 19.133-25.388 26.134zM713.885 707.674l-49.408-468.091h227.039l-126.548 468.091h-51.083z" />
<glyph unicode="&#xe90c;" glyph-name="Discountsfilled" data-tags="Discounts filled" d="M556.423 904.702l64.281-46.679c12.895-9.413 28.369-14.442 44.423-14.442h79.432c32.688 0 61.702-21.083 71.824-52.16l24.565-75.564c4.9-15.216 14.507-28.433 27.401-37.782l64.281-46.744c26.499-19.213 37.588-53.32 27.466-84.397l-24.565-75.564c-4.9-15.216-4.9-31.528 0-46.679l24.565-75.564c10.122-31.141-0.967-65.248-27.466-84.461l-64.281-46.679c-12.895-9.413-22.501-22.63-27.401-37.782l-24.565-75.564c-10.122-31.141-39.136-52.224-71.824-52.224h-79.432c-16.054 0-31.528-5.029-44.423-14.442l-64.281-46.679c-26.499-19.213-62.346-19.213-88.845 0l-64.216 46.679c-12.895 9.413-28.433 14.442-44.423 14.442h-79.432c-32.753 0-61.766 21.083-71.824 52.224l-24.565 75.564c-4.965 15.151-14.571 28.369-27.466 37.782l-64.281 46.679c-26.499 19.213-37.588 53.32-27.466 84.461l24.565 75.564c4.9 15.151 4.9 31.463 0 46.679l-24.565 75.564c-10.122 31.077 0.967 65.183 27.466 84.397l64.281 46.744c12.895 9.349 22.501 22.566 27.466 37.782l24.565 75.564c10.058 31.077 39.071 52.16 71.824 52.16h79.432c15.99 0 31.528 5.029 44.423 14.442l64.216 46.679c26.499 19.213 62.346 19.213 88.845 0zM613.135 686.038l-256.481-444.818c-8.632-14.97-3.493-34.103 11.477-42.735s34.103-3.493 42.735 11.477l256.481 444.818c8.632 14.97 3.493 34.103-11.477 42.735s-34.103 3.493-42.735-11.477zM370.875 518.685c39.274 0 71.111 31.838 71.111 71.111s-31.838 71.111-71.111 71.111c-39.274 0-71.111-31.838-71.111-71.111s31.838-71.111 71.111-71.111zM655.355 233.177c39.274 0 71.111 31.838 71.111 71.111s-31.838 71.111-71.111 71.111c-39.274 0-71.111-31.838-71.111-71.111s31.838-71.111 71.111-71.111z" />
<glyph unicode="&#xe90d;" glyph-name="Discountsoutline" data-tags="Discounts outline" d="M485.975 879.393l-64.165-46.642c-18.242-13.317-40.238-20.459-62.871-20.459h-79.432c-19.187 0-36.176-12.34-42.068-30.544l-24.575-75.596c-7.011-21.488-20.597-40.178-38.81-53.382l-64.316-46.769c-15.507-11.243-22.001-31.204-16.076-49.392l24.591-75.646c6.91-21.458 6.91-44.494-0.027-65.944l-24.564-75.563c-5.929-18.241 0.564-38.211 16.095-49.471l64.344-46.725c18.188-13.277 31.744-31.925 38.774-53.38l24.583-75.62c5.881-18.21 22.859-30.552 42.050-30.552h79.432c22.633 0 44.629-7.143 62.82-20.422l64.186-46.657c15.543-11.27 36.569-11.27 52.094-0.013l64.217 46.633c18.258 13.329 40.194 20.459 62.871 20.459h79.432c19.136 0 36.136 12.358 42.068 30.608l24.55 75.518c6.928 21.423 20.494 40.118 38.787 53.471l64.299 46.693c15.512 11.247 22.005 31.217 16.076 49.457l-24.579 75.609c-6.922 21.404-6.922 44.44 0.015 65.98l24.57 75.581c5.919 18.171-0.575 38.132-16.117 49.401l-64.244 46.717c-18.29 13.26-31.887 31.997-38.792 53.44l-24.559 75.546c-5.93 18.205-22.942 30.561-42.074 30.561h-79.432c-22.677 0-44.613 7.131-62.808 20.413l-64.27 46.672c-15.542 11.264-36.564 11.262-52.073 0.016zM574.789 930.033l64.362-46.739c7.528-5.496 16.539-8.425 25.974-8.425h79.432c46.232 0 87.255-29.797 101.58-73.775l24.591-75.646c2.856-8.868 8.452-16.58 16.021-22.067l64.245-46.718c37.481-27.176 53.179-75.426 38.855-119.401l-24.538-75.481c-2.89-8.973-2.89-18.562-0.027-27.415l24.565-75.565c14.316-44.043-1.371-92.286-38.837-119.451l-64.217-46.633c-7.593-5.543-13.22-13.297-16.094-22.183l-24.564-75.563c-14.309-44.021-55.328-73.841-101.58-73.841h-79.432c-9.435 0-18.446-2.929-26.038-8.471l-64.299-46.693c-37.455-27.157-88.124-27.157-125.609 0.022l-64.267 46.716c-7.506 5.48-16.576 8.425-25.974 8.425h-79.432c-46.327 0-87.368 29.836-101.58 73.84l-24.542 75.494c-2.923 8.921-8.582 16.706-16.118 22.207l-64.262 46.666c-37.484 27.178-53.172 75.422-38.855 119.465l24.55 75.518c2.878 8.898 2.878 18.487 0.015 27.378l-24.559 75.546c-14.33 43.993 1.369 92.242 38.815 119.393l64.317 46.77c7.538 5.465 13.167 13.208 16.075 22.123l24.552 75.525c14.241 44 55.287 73.814 101.593 73.814h79.432c9.398 0 18.468 2.945 26.025 8.462l64.247 46.701c37.455 27.157 88.124 27.157 125.578 0zM655.355 201.888c-56.554 0-102.4 45.846-102.4 102.4s45.846 102.4 102.4 102.4c56.554 0 102.4-45.846 102.4-102.4s-45.846-102.4-102.4-102.4zM655.355 264.466c21.993 0 39.822 17.829 39.822 39.822s-17.829 39.822-39.822 39.822c-21.993 0-39.822-17.829-39.822-39.822s17.829-39.822 39.822-39.822zM370.875 487.396c-56.554 0-102.4 45.846-102.4 102.4s45.846 102.4 102.4 102.4c56.554 0 102.4-45.846 102.4-102.4s-45.846-102.4-102.4-102.4zM370.875 549.974c21.993 0 39.822 17.829 39.822 39.822s-17.829 39.822-39.822 39.822c-21.993 0-39.822-17.829-39.822-39.822s17.829-39.822 39.822-39.822zM627.571 691.252c8.669 14.949 27.815 20.039 42.763 11.37s20.039-27.815 11.37-42.763l-256.415-442.158c-8.669-14.949-27.815-20.039-42.763-11.37s-20.039 27.815-11.37 42.763l256.415 442.158z" />
<glyph unicode="&#xe90e;" glyph-name="downarrow" data-tags="down arrow" d="M510.741 346.661l291.873 291.008c16.27 16.222 42.61 16.183 58.831-0.087s16.183-42.61-0.087-58.831l-321.372-320.42c-16.286-16.237-42.656-16.18-58.871 0.128l-318.598 320.42c-16.199 16.292-16.124 42.632 0.168 58.831s42.632 16.124 58.831-0.168l289.226-290.88z" />
<glyph unicode="&#xe90f;" glyph-name="Executiveenroute" data-tags="Executive enroute" d="M703.679 390.221l37.318 353.545h-59.726c-11.782 0-21.333 9.551-21.333 21.333s9.551 21.333 21.333 21.333h225.189c50.127 0 90.752-40.625 90.752-90.752 0-46.69-35.284-85.167-80.646-90.195l93.426-345.577c3.666-13.56-6.547-26.901-20.594-26.901h-791.382c-11.782 0-21.333 9.551-21.333 21.333v8.718c0 103.592 56.685 203.275 137.958 257.151h-35.637c-35.346 0-64 28.654-64 64v106.667c0 35.346 28.654 64 64 64h132.222c35.346 0 64-28.654 64-64v-129.717c98.048-5.48 185.35-77.016 228.454-170.939zM432.558 562.878v128c0 11.782-9.551 21.333-21.333 21.333h-132.222c-11.782 0-21.333-9.551-21.333-21.333v-106.667c0-11.782 9.551-21.333 21.333-21.333h153.556zM463.134 518.832h-17.465c-115.551 0-219.443-116.642-225.994-243.156h469.452c-6.551 126.515-110.443 243.156-225.994 243.156zM834.983 743.767h-51.083l-49.408-468.091h227.039l-126.548 468.091zM907.831 647.616c25.917 0.727 46.713 21.98 46.713 48.066 0 26.562-21.523 48.085-48.085 48.085h-26.24l27.611-96.151zM531.286 275.676h44.143c3.322-14.253 5.099-28.785 5.099-43.228 0-89.386-72.463-161.86-161.86-161.86s-161.86 72.474-161.86 161.86c0 14.443 1.778 28.975 5.099 43.228h44.143c-4.231-14.147-6.576-28.769-6.576-43.228 0-65.823 53.362-119.193 119.193-119.193s119.193 53.37 119.193 119.193c0 14.459-2.345 29.081-6.576 43.228zM957.586 290.269l-28.803 106.541c48.822-35.734 83.138-100.905 83.138-164.363 0-89.386-72.463-161.86-161.86-161.86s-161.86 72.474-161.86 161.86c0 51.175 22.317 103.465 56.562 140.531l-10.27-97.302h2.951c-4.231-14.147-6.576-28.769-6.576-43.228 0-65.823 53.362-119.193 119.193-119.193s119.193 53.37 119.193 119.193c0 19.5-4.266 39.295-11.668 57.821zM96.105 376.848c11.782 0 21.333-9.551 21.333-21.333s-9.551-21.333-21.333-21.333h-42.667c-11.782 0-21.333 9.551-21.333 21.333s9.551 21.333 21.333 21.333h42.667zM78.196 249.214c11.782 0 21.333-9.551 21.333-21.333s-9.551-21.333-21.333-21.333h-42.667c-11.782 0-21.333 9.551-21.333 21.333s9.551 21.333 21.333 21.333h42.667zM126.288 313.674c11.782 0 21.333-9.551 21.333-21.333s-9.551-21.333-21.333-21.333h-42.667c-11.782 0-21.333 9.551-21.333 21.333s9.551 21.333 21.333 21.333h42.667z" />
<glyph unicode="&#xe910;" glyph-name="Filter" data-tags="Filter" d="M234.296 480.94c37.452-16.228 63.652-53.525 63.652-96.94s-26.2-80.712-63.652-96.94v-222.767c0-22.975-18.625-41.6-41.6-41.6s-41.6 18.625-41.6 41.6v222.469c-37.823 16.066-64.348 53.555-64.348 97.239s26.525 81.173 64.348 97.239v351.548c0 22.975 18.625 41.6 41.6 41.6s41.6-18.625 41.6-41.6v-351.846zM553.6 609.090c37.637-16.148 64-53.54 64-97.090s-26.363-80.943-64-97.090v-350.618c0-22.975-18.625-41.6-41.6-41.6s-41.6 18.625-41.6 41.6v350.618c-37.637 16.148-64 53.54-64 97.090s26.363 80.943 64 97.090v223.696c0 22.975 18.625 41.6 41.6 41.6s41.6-18.625 41.6-41.6v-223.696zM875.096 352.278c36.652-16.564 62.157-53.443 62.157-96.278s-25.505-79.714-62.157-96.278v-95.429c0-22.975-18.625-41.6-41.6-41.6s-41.6 18.625-41.6 41.6v93.847c-38.617 15.704-65.843 53.603-65.843 97.86s27.226 82.156 65.843 97.86v478.926c0 22.975 18.625 41.6 41.6 41.6s41.6-18.625 41.6-41.6v-480.508z" />
<glyph unicode="&#xe911;" glyph-name="gift" data-tags="gift" d="M494.4 121.829v329.874h-272.8v-329.874h272.8zM529.6 121.829h272.8v329.874h-272.8v-329.874zM415.876 619.657l-72.175 49.979c-5.812 4.025-7.261 11.998-3.236 17.81s11.998 7.261 17.81 3.236l102.268-70.817c-2.52 1.987-4.526 4.686-5.677 7.934-29.352 82.844-79.746 122.601-153.674 122.601-47.25 0-72.175-28.305-62.117-60.057 12.712-40.131 71.913-70.686 167.374-70.686h9.427zM255.42 619.657c-25.256 15.795-42.364 36.261-49.902 60.057-17.767 56.090 26.083 105.886 95.674 105.886 69.798 0 123.515-30.192 159.975-89.002 12.781 20.809 35.685 34.686 61.833 34.686 26.506 0 49.679-14.26 62.352-35.545 39.257 59.388 92.529 89.86 159.163 89.86 69.591 0 113.441-49.796 95.674-105.886-7.538-23.796-24.646-44.262-49.902-60.057h29.714c9.72 0 17.6-7.88 17.6-17.6v-497.829c0-9.72-7.88-17.6-17.6-17.6h-616c-9.72 0-17.6 7.88-17.6 17.6v497.829c0 9.72 7.88 17.6 17.6 17.6h51.42zM586.24 620.801l96.018 69.716c5.72 4.153 13.725 2.883 17.878-2.837s2.883-13.725-2.837-17.878l-69.049-50.135c3.593-0.006 7.262-0.009 11.008-0.009 95.462 0 154.662 30.555 167.374 70.686 10.058 31.752-14.867 60.057-62.117 60.057-71.035 0-123.315-42.058-158.275-129.599zM523 620.656c20.633 0 37.4 16.863 37.4 37.714s-16.767 37.714-37.4 37.714c-20.633 0-37.4-16.863-37.4-37.714s16.767-37.714 37.4-37.714zM221.6 584.457v-97.554h580.8v97.554h-580.8z" />
<glyph unicode="&#xe912;" glyph-name="gourmet" data-tags="gourmet" d="M451.952 231.527h-55.735c-0.084-0.104-0.167-0.208-0.252-0.311h-97.644c-0.084 0.104-0.168 0.207-0.252 0.311h-55.735c0.039-0.104 0.079-0.208 0.119-0.311h-10.396l41.854-82.4h376.621l41.854 82.4h-240.553c0.040 0.104 0.079 0.208 0.119 0.311zM458.921 266.727c0.030 1.047 0.045 2.098 0.045 3.153 0 54.657-40.705 100.069-94.068 108.424-5.782 0.905-11.712 1.376-17.754 1.376-6.214 0-12.308-0.497-18.244-1.453-53.123-8.557-93.578-53.858-93.578-108.347 0-1.054 0.015-2.106 0.045-3.153h49.279c-0.053 1.044-0.080 2.095-0.080 3.153 0 34.177 28.062 61.8 62.578 61.8s62.578-27.623 62.578-61.8c0-1.057-0.027-2.109-0.080-3.153h49.279zM746.050 266.727h128.996c9.72 0 17.6-7.88 17.6-17.6s-7.88-17.6-17.6-17.6h-143.021l-55-108.282c-3.001-5.908-9.066-9.63-15.692-9.63h-398.222c-6.626 0-12.691 3.722-15.692 9.63l-55 108.282h-128.419c-9.72 0-17.6 7.88-17.6 17.6s7.88 17.6 17.6 17.6h136.155c-0.023 1.048-0.034 2.099-0.034 3.153 0 77.561 61.708 140.804 139.228 144.8 31.142 80.365 110.104 137.4 202.517 137.4 119.625 0 216.711-95.569 216.711-213.6 0-25.176-4.417-49.33-12.528-71.753zM708.096 266.727c9.827 21.96 15.281 46.234 15.281 71.753 0 98.465-81.204 178.4-181.511 178.4-73.612 0-136.936-43.050-165.427-104.88 67.124-13.389 117.726-71.884 117.726-142.12 0-1.054-0.011-2.105-0.034-3.153h213.965zM316.113 266.727h62.062c0.107 1.037 0.161 2.088 0.161 3.153 0 17.035-13.987 30.804-31.192 30.804s-31.192-13.769-31.192-30.804c0-1.065 0.055-2.116 0.161-3.153zM799.511 456.295c-18.715 26.816-11.211 70.71 16.454 106.12 21.7 27.775 56.41 40.126 102.225 37.877 7.433-0.365 13.833-5.365 15.985-12.489 13.266-43.91 9.679-80.577-12.021-108.352-26.122-33.435-63.932-51.258-93.784-43.317l-13.086-19.323c-5.451-8.048-16.394-10.154-24.442-4.703s-10.154 16.394-4.703 24.442l13.373 19.745zM680.045 593.495c-18.715 26.816-11.211 70.71 16.454 106.12 21.7 27.775 56.41 40.126 102.225 37.877 7.433-0.365 13.833-5.365 15.985-12.489 13.266-43.91 9.679-80.577-12.021-108.352-26.122-33.435-63.932-51.258-93.784-43.317l-13.086-19.323c-5.451-8.048-16.394-10.154-24.442-4.703s-10.154 16.394-4.703 24.442l13.373 19.745zM724.236 677.943c-21.42-27.416-24.42-58.077-12.076-67.722s41.369 0.684 62.789 28.1c12.107 15.496 15.493 36.525 9.314 64.187-28.335-0.697-47.92-9.069-60.027-24.566zM843.703 540.743c-21.42-27.416-24.42-58.077-12.076-67.722s41.369 0.684 62.789 28.1c12.107 15.496 15.493 36.525 9.314 64.187-28.335-0.697-47.92-9.069-60.027-24.566z" />
<glyph unicode="&#xe913;" glyph-name="Help" data-tags="Help" d="M512-6.4c-250.958 0-454.4 203.442-454.4 454.4s203.442 454.4 454.4 454.4c250.958 0 454.4-203.442 454.4-454.4s-203.442-454.4-454.4-454.4zM512 49.067c220.325 0 398.933 178.609 398.933 398.933s-178.609 398.933-398.933 398.933c-220.325 0-398.933-178.609-398.933-398.933s178.609-398.933 398.933-398.933zM429.732 543.506c0-16.495-13.372-29.867-29.867-29.867s-29.867 13.372-29.867 29.867c0 83.446 52.491 151.716 141.314 151.716 94.44 0 145.633-64.703 142.562-152.757-2.027-58.122-26.595-88.603-78.89-121.14-2.247-1.398-5.122-3.169-10.003-6.177-41.212-25.485-48.301-37.435-35.977-80.724 4.516-15.865-4.683-32.387-20.548-36.903s-32.387 4.683-36.903 20.548c-20.962 73.633 0.533 109.866 62.011 147.884 5.017 3.092 7.749 4.775 9.864 6.091 37.134 23.104 49.563 38.524 50.748 72.503 1.975 56.633-25.171 90.942-82.865 90.942-51.896 0-81.581-38.608-81.581-91.983zM544.285 210.121c0-23.564-19.103-42.667-42.667-42.667s-42.667 19.103-42.667 42.667v3.764c0 23.564 19.103 42.667 42.667 42.667s42.667-19.103 42.667-42.667v-3.764z" />
<glyph unicode="&#xe914;" glyph-name="Home" data-tags="Home" d="M196.267 508.943v-415.642h173.185l-0.108 244.382c-0.006 14.143 11.457 25.611 25.6 25.611h236.181c14.138 0 25.6-11.462 25.6-25.6v-247.991l171.009 0.694v414.412l-315.716 292.412-315.751-288.279zM420.663 67.712c0.006-14.143-11.457-25.611-25.6-25.611h-224.396c-14.138 0-25.6 11.462-25.6 25.6v452.534c0 7.194 3.027 14.055 8.339 18.906l341.475 311.765c9.828 8.973 24.892 8.919 34.656-0.124l341.192-316.007c5.231-4.845 8.205-11.652 8.205-18.782v-451.092c0-14.098-11.398-25.543-25.496-25.6l-222.209-0.901c-14.179-0.057-25.704 11.421-25.704 25.6v248.095h-184.97l0.108-244.382z" />
<glyph unicode="&#xe915;" glyph-name="Listview" data-tags="List view" d="M203.185 384c-35.346 0-64 28.654-64 64s28.654 64 64 64c35.346 0 64-28.654 64-64s-28.654-64-64-64zM362.667 420.267c-15.317 0-27.733 12.417-27.733 27.733s12.417 27.733 27.733 27.733h535.543c15.317 0 27.733-12.417 27.733-27.733s-12.417-27.733-27.733-27.733h-535.543zM203.185 639.793c-35.346 0-64 28.654-64 64s28.654 64 64 64c35.346 0 64-28.654 64-64s-28.654-64-64-64zM362.667 676.060c-15.317 0-27.733 12.417-27.733 27.733s12.417 27.733 27.733 27.733h535.543c15.317 0 27.733-12.417 27.733-27.733s-12.417-27.733-27.733-27.733h-535.543zM203.185 128.207c-35.346 0-64 28.654-64 64s28.654 64 64 64c35.346 0 64-28.654 64-64s-28.654-64-64-64zM362.667 164.473c-15.317 0-27.733 12.417-27.733 27.733s12.417 27.733 27.733 27.733h535.543c15.317 0 27.733-12.417 27.733-27.733s-12.417-27.733-27.733-27.733h-535.543z" />
<glyph unicode="&#xe916;" glyph-name="localfashion" data-tags="local fashion" d="M806.881 440.624l-304.683 163.223-304.683-163.223h305.118c0.235 0 0.469-0.005 0.702-0.014 0.233 0.009 0.466 0.014 0.701 0.014h302.844zM883.647 439.433c6.567-2.555 11.222-8.938 11.222-16.409 0-182.508-78.306-279.844-204.215-279.844-88.733 0-159.269 52.939-189.531 142.525-30.458-93.57-95.81-142.525-185.103-142.525-126.83 0-216.485 108.157-204.49 276.893-1.599 7.472 1.833 15.401 8.905 19.19l344.494 184.551-121.574 65.129c-8.568 4.59-11.793 15.257-7.203 23.825s15.257 11.793 23.825 7.203l142.223-76.191 142.723 76.459c8.568 4.59 19.235 1.365 23.825-7.203s1.365-19.235-7.203-23.825l-122.074-65.397 344.177-184.381zM316.019 178.38c100.779 0 164.28 74.383 168.761 227.044h-338.825c-5.836-141.946 67.552-227.044 170.064-227.044zM189.919 317.917c-6.323-3.161-14.012-0.599-17.173 5.724s-0.599 14.012 5.724 17.173l74.927 37.463c6.323 3.161 14.012 0.599 17.173-5.724s0.599-14.012-5.724-17.173l-74.927-37.463zM246.115 267.185c-6.323-3.161-14.012-0.599-17.173 5.724s-0.599 14.012 5.724 17.173l74.927 37.463c6.323 3.161 14.012 0.599 17.173-5.724s0.599-14.012-5.724-17.173l-74.927-37.463zM690.653 178.38c100.779 0 164.28 74.383 168.761 227.044h-338.825c-5.836-141.946 67.552-227.044 170.064-227.044zM639.48 256.259c-6.323-3.161-14.012-0.599-17.173 5.724s-0.599 14.012 5.724 17.173l74.927 37.463c6.323 3.161 14.012 0.599 17.173-5.724s0.599-14.012-5.724-17.173l-74.927-37.463zM695.676 205.527c-6.323-3.161-14.012-0.599-17.173 5.724s-0.599 14.012 5.724 17.173l74.927 37.463c6.323 3.161 14.012 0.599 17.173-5.724s0.599-14.012-5.724-17.173l-74.927-37.463z" />
<glyph unicode="&#xe917;" glyph-name="Locationfilled" data-tags="Location filled" d="M539.733 56.193v-90.854c0-15.317-12.417-27.733-27.733-27.733s-27.733 12.417-27.733 27.733v93.534c-9.882 7.887-21.372 17.279-34.372 28.174-37.543 31.461-80.073 69.029-126.776 112.66-136.607 127.62-201.519 224.808-201.519 361.882 0 204.119 152.036 390.314 390.185 390.314 239.53 0 390.615-185.445 390.615-390.314 0-137.019-65.713-235.302-201.667-361.912-46.717-43.506-88.396-80.959-124.503-112.313-12.668-11-23.742-20.459-33.157-28.37-1.192-1.002-2.305-1.935-3.339-2.8zM512 497.502c35.346 0 64 28.654 64 64s-28.654 64-64 64c-35.346 0-64-28.654-64-64s28.654-64 64-64z" />
<glyph unicode="&#xe918;" glyph-name="Locationoutline" data-tags="Location outline" d="M539.733 56.193v-90.854c0-15.317-12.417-27.733-27.733-27.733s-27.733 12.417-27.733 27.733v93.534c-9.882 7.887-21.372 17.279-34.372 28.174-37.543 31.461-80.073 69.029-126.776 112.66-136.607 127.62-201.519 224.808-201.519 361.882 0 204.119 152.036 390.314 390.185 390.314 239.53 0 390.615-185.445 390.615-390.314 0-137.019-65.713-235.302-201.667-361.912-46.717-43.506-88.396-80.959-124.503-112.313-12.668-11-23.742-20.459-33.157-28.37-1.192-1.002-2.305-1.935-3.339-2.8zM539.862 129.243c35.628 30.938 76.829 67.962 123.070 111.024 125.474 116.85 184.002 204.387 184.002 321.321 0 176.454-129.046 334.847-335.149 334.847-204.755 0-334.718-159.164-334.718-334.847 0-117.011 57.764-203.497 183.917-321.351 45.962-42.938 87.746-79.847 124.537-110.678 10.334-8.66 19.662-16.324 27.929-22.989 7.793 6.6 16.608 14.158 26.412 22.673zM512 497.502c-35.346 0-64 28.654-64 64s28.654 64 64 64c35.346 0 64-28.654 64-64s-28.654-64-64-64z" />
<glyph unicode="&#xe919;" glyph-name="mapview" data-tags="map view" d="M436.196 589.236c-20.028 35.452-29.844 71.94-29.844 114.694 0 129.567 96.682 247.972 247.893 247.972 152.057 0 248.155-117.953 248.155-247.972 0-42.623-9.88-79.182-29.873-114.631l72.983-19.687c12.102-3.265 20.51-14.241 20.51-26.776v-564.169c0-18.233-17.294-31.506-34.907-26.79l-276.636 74.074-276.636-74.074c-2.451-0.656-4.895-0.964-7.288-0.959-2.381-0.003-4.814 0.304-7.253 0.956l-284.198 75.967c-12.133 3.243-20.572 14.234-20.572 26.793v564.564c0 18.229 17.285 31.5 34.895 26.793l277.843-74.269 64.925 17.514zM501.101 591.497c1.407-1.502 2.655-3.172 3.711-4.988 16.622-21.888 38.264-44.591 65.266-69.817 27.773-25.945 53.006-48.235 75.207-66.839 3.566-2.988 6.839-5.704 9.809-8.146 2.755 2.364 5.779 4.974 9.068 7.83 21.547 18.711 46.479 41.115 74.474 67.185 74.158 69.061 108.299 120.123 108.299 187.209 0 101.604-74.059 192.505-192.688 192.505-117.817 0-192.427-91.373-192.427-192.505 0-40.976 12.548-75.73 39.283-112.433zM469.991 540.903l-71.589-19.311v-506.789l228.24 61.115v128.569c0 15.317 12.417 27.733 27.733 27.733 0.069 0 0.137 0 0.205-0.001 15.317 0.001 27.733-12.416 27.733-27.733v-128.569l228.24-61.115v506.789l-71.769 19.36c-17.229-20.872-37.996-42.142-62.349-64.822-28.47-26.513-53.88-49.347-75.907-68.474-7.412-6.436-13.57-11.703-18.419-15.797v-71.843c0-15.317-12.417-27.733-27.733-27.733s-27.733 12.417-27.733 27.733v73.32c-4.723 3.819-10.402 8.488-16.984 14.004-22.952 19.234-48.932 42.183-77.446 68.82-24.334 22.733-45.049 43.968-62.222 64.743zM113.999 583.078v-507.15l228.732-61.141v507.15l-228.732 61.141zM654.376 676.086c-23.564 0-42.667 19.103-42.667 42.667s19.103 42.667 42.667 42.667c23.564 0 42.667-19.103 42.667-42.667s-19.103-42.667-42.667-42.667z" />
<glyph unicode="&#xe91a;" glyph-name="meat" data-tags="meat" d="M651.586 489.364c-21.576-16.733-45.221-28.108-76.183-38.606-7.967-2.701-34.964-11.224-34.076-10.937-21.003-6.789-36.823-13.391-49.009-21.564-18.343-11.746-28.748-26.676-36.068-50.294-17.8-57.438 15.916-118.921 75.647-137.179 34.555-10.562 70.116-4.306 97.417 13.957 20.779 13.336 37.005 33.51 44.745 58.481 2.193 7.076 3.141 11.736 7.029 33.066 3.718 20.398 6.432 32.507 10.774 45.624 7.551 22.811 18.353 41.089 34.293 55.084 11.652 10.227 10.465 16.457-16.042 45.010-22.819 24.58-30.329 28.942-42.399 20.529-2.462-1.504-5.083-3.593-8.050-6.197-2.731-2.398-5.484-4.694-8.269-6.898 0.064-0.025 0.128-0.051 0.192-0.076zM609.922 503.696c9.513 5.541 18.172 11.768 26.519 19.096 28.992 25.448 53.176 23.943 84.597-4.878l61.527 57.264c-0.045 0.629-0.057 1.266-0.033 1.91l3.007 83.441c0.35 9.714 8.508 17.305 18.222 16.955s17.305-8.508 16.955-18.222l-2.371-65.814 64.984-2.198c9.715-0.329 17.324-8.47 16.995-18.185s-8.47-17.324-18.185-16.995l-66.041 2.233c-0.070-0.068-0.141-0.135-0.213-0.201l-70.774-65.871c21.158-26.044 27.135-46.546 17.179-65.204 45.882-35.102 83.238-78.028 109.285-125.921 68.447-125.853 28.897-239.87-104.985-239.87h-462.482c-141.994 0-218.011 108.305-185.887 235.762 33.113 131.38 164.824 227.159 347.963 227.159 50.456 0 98.767-7.23 143.739-20.463zM555.42 480.663c-28.656 5.421-58.505 8.296-89.237 8.296-167.471 0-284.782-85.308-313.831-200.562-26.722-106.024 33.593-191.959 151.754-191.959h462.482c102.632 0 131.293 82.624 74.063 187.852-23.997 44.123-58.707 83.758-101.506 116.132-6.46-8.213-11.541-18.368-15.634-30.73-3.686-11.136-6.12-21.996-9.561-40.875-4.22-23.151-5.233-28.126-8.037-37.174-23.629-76.23-106.203-118.395-184.307-94.521-78.154 23.889-122.62 104.977-98.979 181.261 16.194 52.251 45.582 74.211 106.106 93.774-0.451-0.146 16.004 5.048 26.686 8.507zM250.403 339.352c-8.775 0-15.889 7.163-15.889 16s7.114 16 15.889 16c8.775 0 15.889-7.163 15.889-16s-7.114-16-15.889-16zM208.617 276.537c-8.775 0-15.889 7.163-15.889 16s7.114 16 15.889 16c8.775 0 15.889-7.163 15.889-16s-7.114-16-15.889-16zM271.296 234.66c-8.775 0-15.889 7.163-15.889 16s7.114 16 15.889 16c8.775 0 15.889-7.163 15.889-16s-7.114-16-15.889-16zM308.985 291.194c-8.775 0-15.889 7.163-15.889 16s7.114 16 15.889 16c8.775 0 15.889-7.163 15.889-16s-7.114-16-15.889-16zM308.985 339.352c-8.775 0-15.889 7.163-15.889 16s7.114 16 15.889 16c8.775 0 15.889-7.163 15.889-16s-7.114-16-15.889-16zM258.584 286.298c-8.775 0-15.889 7.163-15.889 16s7.114 16 15.889 16c8.775 0 15.889-7.163 15.889-16s-7.114-16-15.889-16zM224.98 221.86c-8.775 0-15.889 7.163-15.889 16s7.114 16 15.889 16c8.775 0 15.889-7.163 15.889-16s-7.114-16-15.889-16z" />
<glyph unicode="&#xe91b;" glyph-name="nutrition" data-tags="nutrition" d="M715.167 162.587c99.509 0 150.41 67.548 138.379 155.295-11.796 86.035-77.797 142.859-160.275 122.334-63.249-15.74-166.708-74.036-308.946-174.632l-10.593-7.555c-7.795-5.559-18.622-3.747-24.181 4.049-0.050 0.070-0.1 0.141-0.148 0.212-5.557 8.044-3.662 19.055 4.265 24.777l6.616 4.776c98.803 77.69 113.984 189.857 27.42 297.568-11.646 14.491 4.208 34.794 21.090 27.007 80.6-37.175 131.7-45 151.235-28.546 18.347 15.453 19.299 61.695-1.86 137.913-230.182-6.781-371.959-192.298-425.274-563.197h582.272zM460.264 359.857c97.367 63.313 171.988 101.448 224.508 114.517 104.84 26.090 189.233-46.569 203.649-151.71 14.781-107.804-51.135-195.277-173.253-195.277h-602.473c-10.641 0-18.849 9.37-17.447 19.919 54.070 406.779 212.756 613.871 476.12 613.871 7.791 0 14.656-5.123 16.873-12.592 28.67-96.6 28.67-158.826-5.534-187.636-26.86-22.624-71.285-21.448-134.29 1.033 37.949-69.499 40.588-140.011 11.847-202.126zM673.162 570.984c-1.722 6.856 2.44 13.81 9.297 15.532s13.81-2.44 15.532-9.297l13.376-53.259c1.722-6.856-2.44-13.81-9.297-15.532s-13.81 2.44-15.532 9.297l-13.376 53.259zM779.377 575.384c1.722 6.856 8.676 11.019 15.532 9.297s11.019-8.676 9.297-15.532l-13.376-53.259c-1.722-6.856-8.676-11.019-15.532-9.297s-11.019 8.676-9.297 15.532l13.376 53.259zM857.846 471.827c-5.010-4.987-13.115-4.969-18.102 0.042s-4.969 13.115 0.042 18.102l40.128 39.944c5.010 4.987 13.115 4.969 18.102-0.042s4.969-13.115-0.042-18.102l-40.128-39.944z" />
<glyph unicode="&#xe91c;" glyph-name="Orderconfirmed" data-tags="Order confirmed" d="M341.333 85.333h383.992c-13.391 17.827-21.326 39.987-21.326 64v42.667c0 11.782-9.551 21.333-21.333 21.333h-512c-11.782 0-21.333-9.551-21.333-21.333v-42.667c0-35.346 28.654-64 64-64h128zM277.333 256v533.333c0 35.346 28.654 64 64 64h512c35.346 0 64-28.654 64-64v-640c0-58.248-46.689-105.592-104.685-106.649-0.331-0.012-0.666-0.018-1.005-0.018h-598.31c-58.91 0-106.667 47.756-106.667 106.667v42.667c0 35.346 28.654 64 64 64h106.667zM320 256h362.667c35.346 0 64-28.654 64-64v-42.667c0-35.346 28.654-64 64-64s64 28.654 64 64v640c0 11.782-9.551 21.333-21.333 21.333h-512c-11.782 0-21.333-9.551-21.333-21.333v-533.333zM640 597.333c-11.782 0-21.333 9.551-21.333 21.333s9.551 21.333 21.333 21.333h128c11.782 0 21.333-9.551 21.333-21.333s-9.551-21.333-21.333-21.333h-128zM640 384c-11.782 0-21.333 9.551-21.333 21.333s9.551 21.333 21.333 21.333h128c11.782 0 21.333-9.551 21.333-21.333s-9.551-21.333-21.333-21.333h-128zM518.248 676.418c8.331 8.331 21.839 8.331 30.17 0s8.331-21.839 0-30.17l-85.333-85.333c-8.331-8.331-21.839-8.331-30.17 0l-42.667 42.667c-8.331 8.331-8.331 21.839 0 30.17s21.839 8.331 30.17 0l27.582-27.582 70.248 70.248zM518.248 463.085c8.331 8.331 21.839 8.331 30.17 0s8.331-21.839 0-30.17l-85.333-85.333c-8.331-8.331-21.839-8.331-30.17 0l-42.667 42.667c-8.331 8.331-8.331 21.839 0 30.17s21.839 8.331 30.17 0l27.582-27.582 70.248 70.248z" />
<glyph unicode="&#xe91d;" glyph-name="Otherstore" data-tags="Other store" d="M208.119 520.531v-207.173h603.977v207.173h-603.977zM186.786 563.197h684.096v221.869h-721.549v-221.869h37.452zM854.763 520.531v-419.56c0-11.782-9.551-21.333-21.333-21.333h-646.644c-11.782 0-21.333 9.551-21.333 21.333v419.56h-37.452c-11.782 0-21.333 9.551-21.333 21.333v264.536c0 11.782 9.551 21.333 21.333 21.333h764.215c11.782 0 21.333-9.551 21.333-21.333v-264.536c0-11.782-9.551-21.333-21.333-21.333h-37.452zM208.119 270.691v-148.387h603.977v148.387h-603.977zM392.536 652.799c-11.782 0-21.333 9.551-21.333 21.333s9.551 21.333 21.333 21.333h382.108c11.782 0 21.333-9.551 21.333-21.333s-9.551-21.333-21.333-21.333h-382.108zM260.268 630.043c-24.35 0-44.089 19.739-44.089 44.089s19.739 44.089 44.089 44.089c24.35 0 44.089-19.739 44.089-44.089s-19.739-44.089-44.089-44.089z" />
<glyph unicode="&#xe91e;" glyph-name="paan" data-tags="paan" d="M539.88 345.497c-27.991 18.571-46.461 50.626-46.461 87.007 0 13.111 2.4 25.66 6.78 37.218-7.388-2.104-15.183-3.23-23.242-3.23-47.339 0-85.611 38.858-85.611 86.656s38.273 86.656 85.611 86.656c47.337 0 85.599-38.856 85.599-86.656 0-8.164-1.116-16.067-3.203-23.56 11.381 4.412 23.739 6.83 36.659 6.83 56.736 0 102.619-46.584 102.619-103.914 0-53.258-39.581-97.239-90.679-103.232l27.681-68.908c3.613-8.994-0.726-19.217-9.706-22.866l-88.866-36.111c-9.031-3.67-19.324 0.7-22.957 9.745l-36.25 90.24c-3.613 8.994 0.726 19.217 9.706 22.866l52.319 21.26zM528.619 94.631c24.887-10.060 76.197-11.157 115.877 6.266 64.734 28.424 103.943 98.951 103.943 223.012 0 124.933-46.672 250.721-124.672 370.883-27.426 42.251-56.827 80.754-86.209 114.71-9.562 11.050-18.475 20.862-26.538 29.355-8.063-8.493-16.976-18.305-26.538-29.355-29.382-33.956-58.783-72.459-86.209-114.71-78-120.161-124.672-245.95-124.672-370.883 0-124.059 39.21-194.587 103.947-223.012 39.681-17.423 90.991-16.326 115.872-6.267v78.807c0 9.72 7.88 17.6 17.6 17.6s17.6-7.88 17.6-17.6v-78.806zM363.396 68.668c-78.518 34.476-124.996 118.074-124.996 255.242 0 132.714 48.96 264.669 130.347 390.048 28.359 43.688 58.729 83.46 89.116 118.578 10.656 12.314 20.565 23.179 29.478 32.5 5.4 5.647 9.306 9.559 11.468 11.642 6.816 6.565 17.603 6.565 24.419 0 2.162-2.083 6.068-5.995 11.468-11.642 8.913-9.321 18.822-20.185 29.478-32.5 30.388-35.118 60.757-74.89 89.116-118.578 81.387-125.379 130.347-257.334 130.347-390.048 0-137.168-46.475-220.766-124.991-255.241-49.917-21.918-113.422-20.307-147.627-4.662-34.2-15.645-97.707-17.256-147.625 4.662zM527.356 553.148c0 28.48-22.624 51.456-50.399 51.456-27.778 0-50.411-22.98-50.411-51.456s22.634-51.456 50.411-51.456c27.774 0 50.399 22.976 50.399 51.456zM663.432 432.504c0 38.008-30.244 68.714-67.419 68.714-37.152 0-67.393-30.709-67.393-68.714 0-38.016 30.239-68.727 67.393-68.727 37.177 0 67.419 30.708 67.419 68.727zM596.437 263.509l-23.129 57.576-56.255-22.86 23.129-57.576 56.255 22.86zM376.533 365.768c0-9.715-7.878-17.593-17.607-17.593-9.715 0-17.593 7.878-17.593 17.593 0 9.729 7.878 17.607 17.593 17.607 9.729 0 17.607-7.878 17.607-17.607zM410.013 311.319c0-9.729-7.881-17.607-17.6-17.607s-17.6 7.878-17.6 17.607c0 9.715 7.881 17.593 17.6 17.593s17.6-7.878 17.6-17.593zM342.008 311.701c0-9.715-7.878-17.593-17.607-17.593-9.715 0-17.593 7.878-17.593 17.593 0 9.729 7.878 17.607 17.593 17.607 9.729 0 17.607-7.878 17.607-17.607zM376.010 259.52c0-9.725-7.881-17.6-17.6-17.6s-17.6 7.875-17.6 17.6c0 9.725 7.881 17.6 17.6 17.6s17.6-7.875 17.6-17.6zM444.015 242.249c0-9.715-7.881-17.593-17.614-17.593-9.706 0-17.586 7.878-17.586 17.593 0 9.729 7.881 17.607 17.586 17.607 9.733 0 17.614-7.878 17.614-17.607z" />
<glyph unicode="&#xe91f;" glyph-name="Partnerstore" data-tags="Partner store" d="M378.652 769.854l133.485 133.303 133.212-133.303h188.551v-188.551l133.212-133.212-133.212-133.394v-188.551h-188.551l-133.303-133.303-133.394 133.303h-188.46v188.551l-133.303 133.394 133.303 133.212v188.551h188.46zM331.178 465.619c-14.33-16.336-13.731-40.934 1.378-56.552l122.141-126.264c10.922-11.291 28.93-11.59 40.221-0.668 0.558 0.54 1.094 1.103 1.606 1.687l215.662 245.847c14.249 16.244 13.393 40.772-1.955 55.982-14.196 14.068-37.108 13.965-51.177-0.23-0.516-0.521-1.017-1.058-1.501-1.609l-185.3-211.236-89.244 94.056c-13.339 14.058-35.548 14.641-49.606 1.302-0.777-0.737-1.52-1.51-2.226-2.315z" />
<glyph unicode="&#xe920;" glyph-name="petcare" data-tags="pet care" d="M772.57 353.708c-174.598 6.292-288.963 109.344-341.277 306.443-74.292-38.82-124.999-116.606-124.999-206.235v-107.725c0-136.859 104.361-247.414 232.553-247.414 0.198 0 0.396 0 0.594 0.001v0c0.198-0.001 0.396-0.001 0.594-0.001 107.127 0 197.603 77.209 224.442 182.459l-1.404-0.839c3.793 14.67 6.349 29.889 7.54 45.523l1.244 0.744c0.472 6.442 0.713 12.955 0.713 19.528v7.517zM772.57 379.325v51.204c-86.697 10.709-153.335 53.039-201.786 117.784-33.002 44.1-54.226 94.177-64.113 135.939-16.898-2.338-33.215-6.492-48.749-12.258-0.962-0.543-1.907-1.097-2.835-1.663 49.009-188.682 154.224-284.77 317.483-291.006zM772.558 456.343c-0.194 18.953-2.655 37.364-7.126 54.972-87.569 28.986-144.415 91.23-176.904 170.079-15.644 3.319-31.869 5.065-48.502 5.065-0.396-0.001-0.792 0-1.188 0-2.118 0-4.229-0.028-6.334-0.085 9.513-37.835 29.081-83.042 58.776-122.722 43.866-58.618 103.402-96.874 181.278-107.309zM755.131 542.429c-20.846 50.606-59.031 92.242-107.156 117.509l0.415-0.85c-8.801 4.709-17.941 8.869-27.373 12.432 28.139-57.553 71.685-103.321 134.114-129.092zM275.259 303.924l-106.755 63.842c-68.896 41.201-91.347 130.452-50.145 199.348 6.543 10.942 14.498 20.975 23.658 29.841 80.005 77.435 187.681 119.616 298.995 117.126l32.581-0.729c21.243 5.423 43.502 8.306 66.434 8.306 23.795 0 46.865-3.104 68.827-8.929 0.597 0.076 1.206 0.122 1.826 0.138l25.941 0.665c111.287 2.855 219.048-39.155 299.040-116.578 9.161-8.867 17.115-18.9 23.658-29.841 41.201-68.896 18.75-158.147-50.145-199.348l-104.162-62.291c-18.686-136.634-130.013-241.899-264.975-241.899-134.454 0-245.461 104.471-264.776 240.347zM391.754 676.889c-84.27-8.874-163.708-45.655-225.256-105.227-6.942-6.719-12.97-14.323-17.929-22.615-31.223-52.211-14.21-119.848 38.002-151.072l85.713-51.258v107.197c0 93.034 47.451 174.986 119.471 222.974zM689.449 676.118c71.375-48.091 118.321-129.665 118.321-222.203v-105.776l83.336 49.837c52.211 31.223 69.225 98.861 38.002 151.072-4.959 8.292-10.987 15.895-17.929 22.615-60.666 58.717-138.785 95.177-221.73 104.455zM540.126 255.181c1.768 1.788 4.65 1.805 6.439 0.037l-3.201 3.238-3.238-3.275zM532.25 289.951h22.227c16.033 0 29.030-12.997 29.030-29.030 0-7.641-3.013-14.974-8.385-20.408l-9.963-10.079c-11.899-12.037-31.304-12.149-43.341-0.25-0.125 0.125-0.125 0.125-0.25 0.25l-9.963 10.079c-11.271 11.402-11.165 29.782 0.237 41.054 5.434 5.372 12.767 8.385 20.408 8.385zM367.731 434.567c-3.708 8.985 0.571 19.275 9.556 22.983s19.275-0.571 22.983-9.556c7.91-19.169 15.415-26.653 21.378-26.653s13.468 7.484 21.378 26.653c3.708 8.985 13.997 13.264 22.983 9.556s13.264-13.997 9.556-22.983c-12.744-30.884-30.337-48.426-53.916-48.426s-41.172 17.543-53.916 48.426z" />
<glyph unicode="&#xe921;" glyph-name="pharmacy" data-tags="pharmacy" d="M561.346 689.6v41.293c0 7.069 5.731 12.8 12.8 12.8s12.8-5.731 12.8-12.8v-41.293h18.799v46.4c0 43.299-35.101 78.4-78.4 78.4h-8.759c-43.299 0-78.4-35.101-78.4-78.4v-46.4h18.468v41.293c0 7.069 5.731 12.8 12.8 12.8s12.8-5.731 12.8-12.8v-41.293h25.911v41.293c0 7.069 5.731 12.8 12.8 12.8s12.8-5.731 12.8-12.8v-41.293h25.58zM733.977 442.103c-9.252 20.664-23.255 39.178-41.226 53.867l-80.544 65.835c-4.089 3.343-6.462 8.345-6.462 13.627v78.546h-165.559v-78.546c0-5.493-2.564-10.67-6.933-13.999l-84.296-64.228c-19.282-14.692-34.365-33.686-44.317-55.101h429.336zM744.148 409.936c-2.817-1.915-6.218-3.033-9.881-3.033h-440.873c-1.631-8.791-2.471-17.784-2.471-26.881v-194.515c0-50.725 40.913-91.954 91.63-92.345l269.452-1.987c50.971-0.393 92.622 40.588 93.055 91.567l1.773 197.909c0.084 9.916-0.831 19.721-2.685 29.285zM540.566 270.024h66.049c9.72 0 17.6-7.88 17.6-17.6s-7.88-17.6-17.6-17.6h-66.049v-68.439c0-9.72-7.88-17.6-17.6-17.6s-17.6 7.88-17.6 17.6v68.439h-66.049c-9.72 0-17.6 7.88-17.6 17.6s7.88 17.6 17.6 17.6h66.049v68.439c0 9.72 7.88 17.6 17.6 17.6s17.6-7.88 17.6-17.6v-68.439zM404.987 672v64c0 62.74 50.86 113.6 113.6 113.6h8.759c62.74 0 113.6-50.86 113.6-113.6v-152.223l74.082-60.553c42.831-35.010 67.474-87.555 67.003-142.88l-1.773-197.909c-0.599-70.4-58.125-127.001-128.519-126.458l-269.452 1.987c-70.057 0.54-126.565 57.484-126.565 127.544v194.515c0 56.962 26.594 110.658 71.902 145.181l77.362 58.945v87.852z" />
<glyph unicode="&#xe922;" glyph-name="Pickedup" data-tags="Picked up" d="M277.333 725.333v-277.333c0-11.782-9.551-21.333-21.333-21.333s-21.333 9.551-21.333 21.333v277.333h-42.667v-636.372l128-38.857v675.229h-42.667zM362.667 725.333v-682.667h512v682.667h-512zM341.333 768h554.667c11.782 0 21.333-9.551 21.333-21.333v-725.333c0-11.782-9.551-21.333-21.333-21.333h-554.667c-11.782 0-21.333 9.551-21.333 21.333v725.333c0 11.782 9.551 21.333 21.333 21.333zM170.667 768h170.667c11.782 0 21.333-9.551 21.333-21.333v-725.333c0-14.32-13.828-24.573-27.53-20.413l-170.667 51.81c-8.99 2.729-15.136 11.018-15.136 20.413v673.524c0 11.782 9.551 21.333 21.333 21.333zM492.123 581.568c8.754-106.017 56.375-154.901 126.544-154.901 66.749 0 116.697 53.702 126.317 155.030-12.295 7.037-19.65 20.165-19.65 36.97 0 25.6 17.067 42.667 42.667 42.667s42.667-17.067 42.667-42.667c0-18.305-8.726-32.247-23.058-38.706-11.353-123.503-77.745-195.96-168.942-195.96-94.345 0-158.638 67.387-169.148 196.054-14.21 6.5-22.852 20.396-22.852 38.613 0 25.6 17.067 42.667 42.667 42.667s42.667-17.067 42.667-42.667c0-16.908-7.445-30.094-19.877-37.099z" />
<glyph unicode="&#xe923;" glyph-name="Pullarrowcircle" data-tags="Pull arrow circle" d="M512-64c-282.77 0-512 229.23-512 512s229.23 512 512 512c282.77 0 512-229.23 512-512s-229.23-512-512-512zM302.695 321.123l210.212 209.59 208.334-209.526c8.1-8.146 21.269-8.184 29.416-0.084s8.184 21.269 0.084 29.416l-223.020 224.296c-8.108 8.154-21.293 8.182-29.436 0.064l-224.962-224.296c-8.135-8.111-8.154-21.281-0.044-29.416s21.281-8.154 29.416-0.044z" />
<glyph unicode="&#xe924;" glyph-name="Pullarrow" data-tags="Pull arrow" d="M93.39 194.245c-16.27-16.222-42.61-16.183-58.831 0.087s-16.183 42.61 0.087 58.831l449.924 448.591c16.286 16.237 42.656 16.18 58.871-0.128l446.040-448.591c16.199-16.292 16.124-42.632-0.168-58.831s-42.632-16.124-58.831 0.168l-416.669 419.052-420.425-419.179z" />
<glyph unicode="&#xe925;" glyph-name="Receivedorder" data-tags="Received order" d="M277.333 256v533.333c0 35.346 28.654 64 64 64h512c35.346 0 64-28.654 64-64v-640c0-58.248-46.689-105.592-104.685-106.649-0.331-0.012-0.666-0.018-1.005-0.018h-598.31c-58.91 0-106.667 47.756-106.667 106.667v42.667c0 35.346 28.654 64 64 64h106.667zM320 256h362.667c35.346 0 64-28.654 64-64v-42.667c0-35.346 28.654-64 64-64s64 28.654 64 64v640c0 11.782-9.551 21.333-21.333 21.333h-512c-11.782 0-21.333-9.551-21.333-21.333v-533.333zM419.344 597.333c-11.782 0-21.333 9.551-21.333 21.333s9.551 21.333 21.333 21.333h348.656c11.782 0 21.333-9.551 21.333-21.333s-9.551-21.333-21.333-21.333h-348.656zM420.756 384c-11.782 0-21.333 9.551-21.333 21.333s9.551 21.333 21.333 21.333h347.244c11.782 0 21.333-9.551 21.333-21.333s-9.551-21.333-21.333-21.333h-347.244zM704 149.333v42.667c0 11.782-9.551 21.333-21.333 21.333h-512c-11.782 0-21.333-9.551-21.333-21.333v-42.667c0-35.346 28.654-64 64-64h511.992c-13.391 17.827-21.326 39.987-21.326 64z" />
<glyph unicode="&#xe926;" glyph-name="Reviewed" data-tags="Reviewed" d="M681.28 842.205l142.253-142.772c5.144-3.895 8.467-10.069 8.467-17.018v-575.748c0-35.346-28.654-64-64-64h-512c-35.346 0-64 28.654-64 64v682.667c0 35.346 28.654 64 64 64h406.542c8.090 0 15.122-4.501 18.739-11.128zM683.452 779.575l-0.439-54.322c-0.095-11.782 9.379-21.41 21.16-21.505l0.172-0.001h54.657l-75.551 75.827zM657.4 334.327l65.15-56.653c8.891-7.731 9.831-21.206 2.1-30.097s-21.206-9.831-30.097-2.1l-64.631 56.201c-32.438-30.457-76.088-49.112-124.095-49.112-100.148 0-181.333 81.186-181.333 181.333s81.186 181.333 181.333 181.333c100.148 0 181.333-81.186 181.333-181.333 0-36.775-10.947-70.993-29.761-99.574zM505.827 295.234c76.583 0 138.667 62.083 138.667 138.667s-62.083 138.667-138.667 138.667c-76.583 0-138.667-62.083-138.667-138.667s62.083-138.667 138.667-138.667zM641.035 810.667h-385.035c-11.782 0-21.333-9.551-21.333-21.333v-682.667c0-11.782 9.551-21.333 21.333-21.333h512c11.782 0 21.333 9.551 21.333 21.333v554.415h-84.987c-0.258 0-0.258 0-0.517 0.002-35.345 0.286-63.766 29.17-63.481 64.515l0.687 85.069zM429.617 511.096c7.227 9.305 20.629 10.99 29.934 3.763s10.99-20.629 3.763-29.934l-16.592-21.363c-7.227-9.305-20.629-10.99-29.934-3.763s-10.99 20.629-3.763 29.934l16.592 21.363z" />
<glyph unicode="&#xe927;" glyph-name="Supermarket" data-tags="Supermarket" d="M410.557 595.728c-9.205 0-16.667 7.163-16.667 16s7.462 16 16.667 16c9.205 0 16.667-7.163 16.667-16s-7.462-16-16.667-16zM404.737 640.73c-9.205 0-16.667 7.163-16.667 16s7.462 16 16.667 16c9.205 0 16.667-7.163 16.667-16s-7.462-16-16.667-16zM457.437 605.472c-9.205 0-16.667 7.163-16.667 16s7.462 16 16.667 16c9.205 0 16.667-7.163 16.667-16s-7.462-16-16.667-16zM369.533 610.255c-9.205 0-16.667 7.163-16.667 16s7.462 16 16.667 16c9.205 0 16.667-7.163 16.667-16s-7.462-16-16.667-16zM322.22 597.455c-9.205 0-16.667 7.163-16.667 16s7.462 16 16.667 16c9.205 0 16.667-7.163 16.667-16s-7.462-16-16.667-16zM853.14 494.076l-45.614-276.167c-13.496-63.126-68.578-108.264-132.355-108.264h-325.513c-63.777 0-118.859 45.138-132.509 109.077l-45.465 275.355h-59.719c-9.72 0-17.6 7.88-17.6 17.6s7.88 17.6 17.6 17.6h53.907l-7.2 43.605c-1.77 10.72 6.5 20.467 17.365 20.467h62.555c12.702 73.101 76.485 128.144 152.572 128.144 76.095 0 139.871-55.051 152.572-128.144h19.119l30.13 119.841v37.174h-32.516c-9.72 0-17.6 7.88-17.6 17.6s7.88 17.6 17.6 17.6h221.16c9.72 0 17.6-7.88 17.6-17.6s-7.88-17.6-17.6-17.6h-29.424v-37.174l30.13-119.841h66.458c10.865 0 19.135-9.747 17.365-20.467l-7.202-43.605h53.909c9.72 0 17.6-7.88 17.6-17.6s-7.88-17.6-17.6-17.6h-59.723zM201.545 529.276h38.563c9.72 0 17.6-7.88 17.6-17.6s-7.88-17.6-17.6-17.6h-32.753l44.369-268.808c10.044-46.98 50.855-80.424 97.933-80.424h325.513c47.078 0 87.889 33.443 97.78 79.611l55.097 333.692h-110.155l-141.366-0.398c-1.313-0.004-2.587 0.134-3.809 0.398h-42.53c-0.676-0.078-1.364-0.118-2.062-0.117l-331.346 0.117 4.766-28.872zM628.183 750.364v-39.353l-0.531-4.291-28.503-113.372 146.869 0.079-28.483 113.292-0.531 4.291v39.353h-88.82zM507.842 593.348c-12.165 53.412-60.004 92.944-116.679 92.944-56.63 0-104.448-39.472-116.654-92.834l233.334-0.11zM350.652 447.604c0 9.72 7.88 17.6 17.6 17.6s17.6-7.88 17.6-17.6v-160.18c0-9.72-7.88-17.6-17.6-17.6s-17.6 7.88-17.6 17.6v160.18zM510.831 447.604c0 9.72 7.88 17.6 17.6 17.6s17.6-7.88 17.6-17.6v-160.18c0-9.72-7.88-17.6-17.6-17.6s-17.6 7.88-17.6 17.6v160.18zM671.011 447.604c0 9.72 7.88 17.6 17.6 17.6s17.6-7.88 17.6-17.6v-160.18c0-9.72-7.88-17.6-17.6-17.6s-17.6 7.88-17.6 17.6v160.18z" />
<glyph unicode="&#xe928;" glyph-name="Tick" data-tags="Tick" d="M397.822 284.084l412.949 435.909c15.801 16.679 42.131 17.391 58.81 1.591s17.391-42.131 1.591-58.81l-442.427-467.026c-16.136-17.033-43.157-17.36-59.7-0.722l-219.023 220.276c-16.199 16.292-16.124 42.632 0.168 58.831s42.632 16.124 58.831-0.168l188.801-189.881z" />
<glyph unicode="&#xe929;" glyph-name="uparrow" data-tags="up arrow" d="M513.259 549.339l-291.873-291.008c-16.27-16.222-42.61-16.183-58.831 0.087s-16.183 42.61 0.087 58.831l321.372 320.42c16.286 16.237 42.656 16.18 58.871-0.128l318.598-320.42c16.199-16.292 16.124-42.632-0.168-58.831s-42.632-16.124-58.831 0.168l-289.226 290.88z" />
<glyph unicode="&#xe92a;" glyph-name="waitingforitemlist" data-tags="waiting for item list" d="M298.667 85.333h383.992c-13.391 17.827-21.326 39.987-21.326 64v42.667c0 11.782-9.551 21.333-21.333 21.333h-512c-11.782 0-21.333-9.551-21.333-21.333v-42.667c0-35.346 28.654-64 64-64h128zM234.667 256v533.333c0 35.346 28.654 64 64 64h277.318c38.921 51.816 100.887 85.333 170.682 85.333 117.821 0 213.333-95.513 213.333-213.333 0-69.795-33.517-131.761-85.333-170.682v-405.318c0-58.248-46.689-105.592-104.685-106.649-0.331-0.012-0.666-0.018-1.005-0.018h-598.31c-58.91 0-106.667 47.756-106.667 106.667v42.667c0 35.346 28.654 64 64 64h106.667zM277.333 256h362.667c35.346 0 64-28.654 64-64v-42.667c0-35.346 28.654-64 64-64s64 28.654 64 64v380.418c-26.132-11.417-54.993-17.751-85.333-17.751-117.821 0-213.333 95.513-213.333 213.333 0 30.34 6.334 59.202 17.751 85.333h-252.418c-11.782 0-21.333-9.551-21.333-21.333v-533.333zM597.333 384c-11.782 0-21.333 9.551-21.333 21.333s9.551 21.333 21.333 21.333h128c11.782 0 21.333-9.551 21.333-21.333s-9.551-21.333-21.333-21.333h-128zM475.582 676.418c8.331 8.331 21.839 8.331 30.17 0s8.331-21.839 0-30.17l-85.333-85.333c-8.331-8.331-21.839-8.331-30.17 0l-42.667 42.667c-8.331 8.331-8.331 21.839 0 30.17s21.839 8.331 30.17 0l27.582-27.582 70.248 70.248zM475.582 463.085c8.331 8.331 21.839 8.331 30.17 0s8.331-21.839 0-30.17l-85.333-85.333c-8.331-8.331-21.839-8.331-30.17 0l-42.667 42.667c-8.331 8.331-8.331 21.839 0 30.17s21.839 8.331 30.17 0l27.582-27.582 70.248 70.248zM746.667 554.667c94.257 0 170.667 76.41 170.667 170.667s-76.41 170.667-170.667 170.667c-94.257 0-170.667-76.41-170.667-170.667s76.41-170.667 170.667-170.667zM825.459 676.418c8.331-8.331 8.331-21.839 0-30.17s-21.839-8.331-30.17 0l-64 64c-4.001 4.001-6.248 9.427-6.248 15.085v106.667c0 11.782 9.551 21.333 21.333 21.333s21.333-9.551 21.333-21.333v-97.83l57.752-57.752z" />
<glyph unicode="&#xe92b;" glyph-name="custom_added_icon" data-tags="custom_added_icon" horiz-adv-x="805" d="M0 960h804.571v-877.714l-146.286-146.286h-658.286v1024zM146.286 740.571v-36.571h512v36.571h-512zM146.286 594.286v-36.571h512v36.571h-512zM146.286 448v-36.571h292.571v36.571h-292.571z" />
<glyph unicode="&#xe92c;" glyph-name="categories_icon" data-tags="categories_icon" d="M512 680.727c-77.119 0-139.636 62.517-139.636 139.636s62.517 139.636 139.636 139.636c77.119 0 139.636-62.517 139.636-139.636s-62.517-139.636-139.636-139.636zM512-64c-77.119 0-139.636 62.517-139.636 139.636s62.517 139.636 139.636 139.636c77.119 0 139.636-62.517 139.636-139.636s-62.517-139.636-139.636-139.636zM884.364 308.364c-77.119 0-139.636 62.517-139.636 139.636s62.517 139.636 139.636 139.636c77.119 0 139.636-62.517 139.636-139.636s-62.517-139.636-139.636-139.636zM139.636 308.364c-77.119 0-139.636 62.517-139.636 139.636s62.517 139.636 139.636 139.636c77.119 0 139.636-62.517 139.636-139.636s-62.517-139.636-139.636-139.636z" />
<glyph unicode="&#xe92d;" glyph-name="cartInverse" data-tags="cartInverse" d="M914.968 731.382l-56.266 110.733h-695.493l-56.269-110.676-49.127-697.606h908.050l-50.896 697.55zM130.155 896h761.609l76.157-149.879 55.903-766.175h-1023.824l53.956 766.175 76.2 149.879zM724.445 459.151c0-120.144-94.595-217.677-211.273-217.677-116.632 0-211.227 97.486-211.227 217.677v55.878c-19.217 9.404-32.518 29.581-32.518 52.948 0 32.369 25.455 58.595 56.894 58.595 31.394 0 56.871-26.226 56.871-58.595 0-23.367-13.301-43.545-32.518-52.948v-55.878c0-92.477 72.786-167.445 162.497-167.445 89.756 0 162.542 74.969 162.542 167.445v55.878c-19.217 9.404-32.518 29.581-32.518 52.948 0 32.369 25.478 58.595 56.894 58.595 31.394 0 56.871-26.226 56.871-58.595 0-23.367-13.301-43.545-32.518-52.948v-55.878z" />
<glyph unicode="&#xe92e;" glyph-name="sniper" data-tags="sniper" d="M512 84.945c200.509 0 363.055 162.545 363.055 363.055s-162.545 363.055-363.055 363.055c-200.509 0-363.055-162.545-363.055-363.055s162.545-363.055 363.055-363.055zM512 29.091c-231.357 0-418.909 187.552-418.909 418.909s187.552 418.909 418.909 418.909c231.357 0 418.909-187.552 418.909-418.909s-187.552-418.909-418.909-418.909zM465.455 960h93.091v-139.636h-93.091v139.636zM465.455 75.636h93.091v-139.636h-93.091v139.636zM1024 494.545v-93.091h-139.636v93.091h139.636zM139.636 494.545v-93.091h-139.636v93.091h139.636zM512 354.909c-51.413 0-93.091 41.678-93.091 93.091s41.678 93.091 93.091 93.091c51.413 0 93.091-41.678 93.091-93.091s-41.678-93.091-93.091-93.091z" />
<glyph unicode="&#xe92f;" glyph-name="Shop" data-tags="Shop" d="M599.26 59.831v401.508c-3.056 0.53-6.214 1.131-9.475 1.802v0.079c-31.607 9.267-58.899 29.684-77.709 57.101-26.1-38.045-68.533-62.61-116.164-62.61-47.569 0-89.967 24.505-116.078 62.485-26.112-37.98-68.51-62.485-116.078-62.485-13.767 0-27.073 2.044-39.664 5.858v-403.65l475.169-0.089zM650.46 59.831h29.867v0.089h219.924v403.743c-12.679-3.873-26.095-5.951-39.993-5.951-47.518 0-89.888 24.456-116.009 62.384-21.97-31.9-55.434-54.27-93.789-60.575v-399.689zM900.251 519.447c30.398 16.074 51.553 49.91 51.553 89.432 0 2.545-0.088 5.077-0.262 7.592l-0.062 1.791v191.947c0 14.289-11.583 25.872-25.872 25.872h-827.541c-14.289 0-25.872-11.583-25.872-25.872v-204.372c0.051-0.506 0.087-1.016 0.108-1.53 0.013-0.315 0.028-0.629 0.043-0.943 1.876-37.367 22.644-68.852 51.744-84.084 12.044-6.304 25.515-9.824 39.664-9.824 44.979 0 83.571 35.697 90.465 84.082 4.222 29.63 47.005 29.63 51.227 0 6.894-48.385 45.487-84.082 90.465-84.082 45.145 0 83.836 35.958 90.534 84.572 4.104 29.788 47.156 29.788 51.26 0 6.698-48.614 45.389-84.572 90.534-84.572 44.847 0 83.361 35.493 90.409 83.696 4.314 29.505 46.886 29.505 51.2 0 7.048-48.203 45.562-83.696 90.409-83.696 14.297 0 27.879 3.585 39.993 9.991zM951.995 492.725v-458.677c0-14.289-11.583-25.872-25.872-25.872h-827.904c-14.289 0-25.872 11.583-25.872 25.872v458.393c-29.531 25.835-49.050 63.934-51.598 106.856-0.196 1.283-0.297 2.597-0.297 3.935v206.976c0 42.866 34.75 77.616 77.616 77.616h827.541c42.866 0 77.616-34.75 77.616-77.616v-191.090c0.216-3.399 0.324-6.813 0.324-10.239 0-46.547-19.994-88.365-51.553-116.154zM855.844 270.198c0-14.138-11.462-25.6-25.6-25.6s-25.6 11.462-25.6 25.6v40.656c0 14.138 11.462 25.6 25.6 25.6s25.6-11.462 25.6-25.6v-40.656z" />
<glyph unicode="&#xe930;" glyph-name="combined_shape1" data-tags="combined_shape (1)" horiz-adv-x="901" d="M565.248 464.261c7.654-0.929 16.516-1.459 25.502-1.459 8.331 0 16.555 0.456 24.65 1.343l-1-0.089c111.549 12.352 197.524 106.093 197.524 219.915 0 122.157-99.027 221.184-221.184 221.184s-221.184-99.027-221.184-221.184c0-113.174 84.999-206.495 194.641-219.608l1.051-0.102zM614.4 414.7v-420.332c0-13.573-11.003-24.576-24.576-24.576h-550.461c-13.573 0-24.576 11.003-24.576 24.576v0 686.694c0 13.573 11.003 24.576 24.576 24.576v0h281.805c11.58 139.673 127.796 248.645 269.464 248.645 149.302 0 270.336-121.034 270.336-270.336 0-140.935-107.847-256.68-245.516-269.212l-1.052-0.077zM321.741 656.486h-257.761v-637.542h501.268v395.878c-60.331 5.804-113.954 30.715-155.67 68.524l0.227-0.203h-136.52c-13.573 0-24.576 11.003-24.576 24.576s11.003 24.576 24.576 24.576h93.635c-24.119 35.061-40.302 77.349-45.041 123.037l-0.097 1.154zM178.176 483.144c-13.573 0-24.576 11.003-24.576 24.576s11.003 24.576 24.576 24.576h15.237c13.573 0 24.576-11.003 24.576-24.576s-11.003-24.576-24.576-24.576h-15.237zM178.176 317.624c-13.573 0-24.576 11.003-24.576 24.576s11.003 24.576 24.576 24.576h15.237c13.573 0 24.576-11.003 24.576-24.576s-11.003-24.576-24.576-24.576h-15.237zM273.203 317.624c-13.573 0-24.576 11.003-24.576 24.576s11.003 24.576 24.576 24.576h188.826c13.573 0 24.576-11.003 24.576-24.576s-11.003-24.576-24.576-24.576h-188.826zM178.176 148.787c-13.573 0-24.576 11.003-24.576 24.576s11.003 24.576 24.576 24.576h15.237c13.573 0 24.576-11.003 24.576-24.576s-11.003-24.576-24.576-24.576h-15.237zM273.203 148.787c-13.573 0-24.576 11.003-24.576 24.576s11.003 24.576 24.576 24.576h188.826c13.573 0 24.576-11.003 24.576-24.576s-11.003-24.576-24.576-24.576h-188.826zM567.009 708.506v85.934c0 13.573 11.003 24.576 24.576 24.576s24.576-11.003 24.576-24.576v-85.893h85.934c13.573 0 24.576-11.003 24.576-24.576s-11.003-24.576-24.576-24.576h-85.934v-85.893c0-13.573-11.003-24.576-24.576-24.576s-24.576 11.003-24.576 24.576v85.893h-85.893c-13.573 0-24.576 11.003-24.576 24.576s11.003 24.576 24.576 24.576h85.893z" />
<glyph unicode="&#xe931;" glyph-name="combined_shape" data-tags="combined_shape" horiz-adv-x="808" d="M76.962 852.211v-838.818h659.564v838.872h-659.564zM44.625 916.884h724.237c17.859 0 32.337-14.478 32.337-32.337v0-903.491c0-17.859-14.478-32.337-32.337-32.337h-724.237c-17.859 0-32.337 14.478-32.337 32.337v0 903.545c0 17.859 14.478 32.337 32.337 32.337v0zM227.328 624.182c-17.859 0-32.337 14.478-32.337 32.337s14.478 32.337 32.337 32.337h19.995c17.859 0 32.337-14.478 32.337-32.337s-14.478-32.337-32.337-32.337h-20.049zM352.364 624.182c-17.859 0-32.337 14.478-32.337 32.337s14.478 32.337 32.337 32.337h248.455c17.859 0 32.337-14.478 32.337-32.337s-14.478-32.337-32.337-32.337h-248.455zM227.328 406.393c-17.859 0-32.337 14.478-32.337 32.337s14.478 32.337 32.337 32.337h19.995c17.859 0 32.337-14.478 32.337-32.337s-14.478-32.337-32.337-32.337h-20.049zM352.364 406.393c-17.859 0-32.337 14.478-32.337 32.337s14.478 32.337 32.337 32.337h248.455c17.859 0 32.337-14.478 32.337-32.337s-14.478-32.337-32.337-32.337h-248.455zM227.328 184.239c-17.859 0-32.337 14.478-32.337 32.337s14.478 32.337 32.337 32.337h19.995c17.859 0 32.337-14.478 32.337-32.337s-14.478-32.337-32.337-32.337h-20.049zM352.364 184.239c-17.859 0-32.337 14.478-32.337 32.337s14.478 32.337 32.337 32.337h248.455c17.859 0 32.337-14.478 32.337-32.337s-14.478-32.337-32.337-32.337h-248.455z" />
<glyph unicode="&#xe932;" glyph-name="work" data-tags="work" d="M64.674 0h883.874v565.333h-883.874v-565.333zM0 629.333h1013.221v-693.333h-1013.221v693.333zM323.368 789.333h366.484v-64h-366.484v64z" />
<glyph unicode="&#xe933;" glyph-name="p_1" data-tags="p_1" d="M0 960l1024-512-1024-512 270.72 512z" />
<glyph unicode="&#xe934;" glyph-name="Home-new" data-tags="Home-new" d="M488.422 959.848c11.649 9.928 28.148 11.344 41.181 4.251l6.189-4.256 441.621-376.551c6.322-5.391 10.499-12.729 11.917-20.722l0.536-6.098v-593.495c0-17.472-12.819-31.94-29.656-34.94l-6.485-0.571h-275.297c-17.706 0-32.494 12.53-35.559 29.122l-0.582 6.396 0.017 396.354h-258.048l0.056-396.362c0-15.288-9.815-28.276-23.548-33.294l-6.108-1.646-6.485-0.571h-277.896c-17.704 0-32.49 12.526-35.557 29.116l-0.584 6.395v593.495c0 8.243 2.914 16.153 8.128 22.437l4.332 4.388 441.83 376.551zM512.085 886.101l-405.675-341.897v-545.655h205.568l0.051 396.29c0 17.472 12.819 31.94 29.656 34.94l6.485 0.571h330.356c17.706 0 32.494-12.53 35.559-29.122l0.582-6.396-0.172-396.282h203.093l2.992 539.166-408.496 348.386z" />
<glyph unicode="&#xe935;" glyph-name="Other-new" data-tags="Other-new" d="M469.811 968.533c217.054 0 393.011-175.957 393.011-393.011 0-137.81-112.317-297.801-335.116-478.886l-25.21-20.207-0.121-74.448c0-7.887-2.804-15.118-7.469-20.753-5.973-7.214-14.997-11.81-25.095-11.81-15.736 0-28.865 11.162-31.902 25.994l-0.662 6.559 3.072 67.86-15.907 12.905c-232.058 190.424-347.613 353.003-347.613 492.786 0 217.054 175.957 393.011 393.011 393.011zM469.811 903.407c-181.086 0-327.885-146.799-327.885-327.885 0-113.815 103.689-259.146 309.929-430.97l17.905-14.76 18.007 14.76 45.838 39.237c168.709 148.581 256.861 276.064 263.664 378.958l0.427 12.776c0 181.086-146.799 327.885-327.885 327.885zM469.811 647.715c44.527 0 80.623-36.096 80.623-80.623s-36.096-80.623-80.623-80.623c-44.527 0-80.623 36.096-80.623 80.623s36.096 80.623 80.623 80.623z" />
<glyph unicode="&#xe936;" glyph-name="Store-new" data-tags="Store-new" d="M942.817 883.2c46.115 0 84.007-35.67 88.855-81.41l0.524-9.946-0.016-203.383 0.354-11.455c0-45.749-16.951-88.67-44.224-115.58l-9.464-8.359-0.010-489.46c0-17.702-12.515-32.49-29.092-35.557l-6.39-0.584h-862.35c-17.46 0-31.915 12.821-34.912 29.655l-0.57 6.484 2.667 482.95c-29.422 26.445-48.95 63.394-54.81 103.928l-1.833 18.374-0.078 222.987c0 47.049 34.818 85.855 79.632 90.82l9.747 0.537h861.972zM512 468.139l-1.293-1.934c-29.613-37.036-72.936-59.041-119.625-59.041-46.634 0-89.917 21.956-119.53 58.922l-1.387 1.882-1.369-1.882c-26.652-33.27-64.376-54.381-105.651-58.271l-13.879-0.652c-10.021 0-19.918 1.004-29.598 2.98l-3.359 0.908 0.171-411.221h467.883v415.744l-6.575 2.311c-25.012 10.069-47.221 26.842-64.55 48.592l-1.237 1.662zM753.92 467.883l-1.258-1.726c-23.319-29.132-55.236-49.073-90.684-56.146l-5.85-0.838-0.085-409.344h251.819l0.171 411.307-3.369-0.933c-4.889-1.008-9.834-1.768-14.824-2.276l-15.091-0.764c-46.589 0-89.84 21.916-119.453 58.826l-1.375 1.893zM728.444 301.452c17.613 0 32.232-12.801 35.263-29.65l0.577-6.491v-58.182c0-19.939-16.025-36.141-35.84-36.141-17.613 0-32.232 12.801-35.263 29.65l-0.577 6.491v58.182c0 19.939 16.025 36.141 35.84 36.141zM942.817 810.918h-861.972c-8.436 0-15.6-5.899-17.754-13.988l-0.661-5.087 0.106-219.37c0.294-7.239 1.288-14.33 2.945-21.171l4.549-14.253 1.565-3.886 5.87-11.006 4.235-6.408 1.927-4.688-1.331 3.846 6.004-7.293 6.571-6.605 6.202-5.122 4.284-2.983 7.906-4.66c11.237-5.775 23.454-8.799 36.004-8.799 42.491 0 79.172 34.877 85.777 82.366 5.762 41.428 64.5 41.428 70.262 0 6.605-47.488 43.286-82.366 85.777-82.366 42.653 0 79.427 35.138 85.843 82.85 5.601 41.647 64.706 41.647 70.307 0 6.417-47.712 43.19-82.85 85.843-82.85 42.363 0 78.971 34.672 85.723 81.984 5.888 41.255 64.337 41.255 70.225 0 6.752-47.311 43.361-81.984 85.723-81.984 16.836 0 33.026 5.436 46.962 15.535l7.175 5.788 6.398 6.328 6.171 7.488 2.413 3.22 7.362 13.132 1.957 4.19 0.626 1.824 4.738 14.644 1.792 9.045 1.198 13.842-0.307 12.536v204.825c0 8.817-5.758 16.185-13.536 18.396l-4.879 0.678z" />
<glyph unicode="&#xe937;" glyph-name="Work-new" data-tags="Work-new" d="M567.577 883.2c17.693 0 32.503-12.398 35.575-28.855l0.585-6.345-0.089-231.211 350.058-0.006c15.481 0 28.755-9.492 33.89-22.89l1.685-5.965 0.585-6.345v-618.917c0-17.342-12.844-31.666-29.678-34.635l-6.482-0.565h-883.413c-17.693 0-32.503 12.398-35.575 28.855l-0.585 6.345v885.333c0 17.342 12.844 31.666 29.678 34.635l6.482 0.565h497.283zM603.733 546.475v-548.608h313.771v548.523l-313.771 0.085zM531.371 812.8h-424.96v-814.933h424.96v814.933zM813.221 185.173c19.949 0 36.16-16.024 36.16-35.84 0-17.614-12.809-32.232-29.666-35.263l-6.494-0.577h-106.416c-19.949 0-36.16 16.024-36.16 35.84 0 17.614 12.809 32.232 29.666 35.263l6.494 0.577h106.416zM398.865 184.971c19.949 0 36.16-16.024 36.16-35.84 0-17.614-12.809-32.232-29.666-35.263l-6.494-0.577h-162.446c-19.949 0-36.16 16.024-36.16 35.84 0 17.614 12.809 32.232 29.666 35.263l6.494 0.577h162.446zM398.865 399.105c19.949 0 36.16-16.024 36.16-35.84 0-17.614-12.809-32.232-29.666-35.263l-6.494-0.577h-162.446c-19.949 0-36.16 16.024-36.16 35.84 0 17.614 12.809 32.232 29.666 35.263l6.494 0.577h162.446zM398.865 611.84c19.949 0 36.16-16.024 36.16-35.84 0-17.614-12.809-32.232-29.666-35.263l-6.494-0.577h-162.446c-19.949 0-36.16 16.024-36.16 35.84 0 17.614 12.809 32.232 29.666 35.263l6.494 0.577h162.446zM813.221 398.507c19.949 0 36.16-16.024 36.16-35.84 0-17.614-12.809-32.232-29.666-35.263l-6.494-0.577h-106.416c-19.949 0-36.16 16.024-36.16 35.84 0 17.614 12.809 32.232 29.666 35.263l6.494 0.577h106.416z" />
<glyph unicode="&#xe938;" glyph-name="ContactBookIcon" data-tags="ContactBookIcon" d="M938.667 960c47.128 0 85.333-38.205 85.333-85.333v0-853.333c0-47.128-38.205-85.333-85.333-85.333v0h-682.667c-94.257 0-170.667 76.41-170.667 170.667v0 42.667h-42.667c-23.564 0-42.667 19.103-42.667 42.667s19.103 42.667 42.667 42.667v0h42.667v170.667h-42.667c-23.564 0-42.667 19.103-42.667 42.667s19.103 42.667 42.667 42.667v0h42.667v170.667h-42.667c-23.564 0-42.667 19.103-42.667 42.667s19.103 42.667 42.667 42.667v0h42.667v42.667c0 94.257 76.41 170.667 170.667 170.667v0zM938.667 874.667h-682.667c-47.128 0-85.333-38.205-85.333-85.333v0-42.667h42.667c23.564 0 42.667-19.103 42.667-42.667s-19.103-42.667-42.667-42.667v0h-42.667v-170.667h42.667c23.564 0 42.667-19.103 42.667-42.667s-19.103-42.667-42.667-42.667v0h-42.667v-170.667h42.667c23.564 0 42.667-19.103 42.667-42.667s-19.103-42.667-42.667-42.667v0h-42.667v-42.667c0-47.128 38.205-85.333 85.333-85.333v0h682.667v853.333zM466.785 695.766c69.929 64.873 182.185 64.873 252.114 0s71.644-170.606 3.852-237.461c85.99-44.571 139.454-129.657 139.565-222.112v0-42.307c0-23.365-20.108-42.307-44.912-42.307s-44.912 18.941-44.912 42.307v0 42.307c0 93.462-80.432 169.228-179.649 169.228s-179.649-75.766-179.649-169.228v0-42.307c0-23.365-20.108-42.307-44.912-42.307s-44.912 18.941-44.912 42.307v0 42.307c0.11 92.454 53.575 177.541 139.565 222.112-67.792 66.856-66.077 172.588 3.852 237.461zM592.842 659.263c-49.609 0-89.825-37.883-89.825-84.614s40.216-84.614 89.825-84.614c49.609 0 89.825 37.883 89.825 84.614s-40.216 84.614-89.825 84.614z" />
<glyph unicode="&#xe939;" glyph-name="history" data-tags="history" horiz-adv-x="1075" d="M594.79 960c265.318 0 480.41-218.112 480.41-487.117s-215.091-487.117-480.41-487.117c-151.91 0-287.386 71.475-375.398 183.091l45.568 46.285c76.186-99.994 195.584-164.454 329.83-164.454 229.939 0 416.358 189.030 416.358 422.195s-186.419 422.144-416.358 422.144c-226.611 0-410.931-183.501-416.256-411.955l-64.102 0.051c5.376 264.294 218.368 476.877 480.358 476.877zM143.053 328.499l143.053 174.080h-286.106zM560.179 727.91v-269.363l195.942-136.858 32.973 65.178-160.256 112.077v228.966z" />
<glyph unicode="&#xe93a;" glyph-name="Task-business" data-tags="Task - business" d="M259.718 417.551h434.723v400.886h-98.884v-200.443c0-18.683-19.366-31.074-36.329-23.243l-81.298 37.528-74.957-37.215c-17.017-8.449-36.984 3.93-36.984 22.93v200.443h-106.271v-400.886zM208.518 366.351h-98.883v-330.018h434.722v330.018h-106.271v-152.769c0-18.683-19.366-31.074-36.329-23.243l-81.298 37.528-74.957-37.215c-17.017-8.449-36.984 3.93-36.984 22.93v152.769zM906.224 417.551v151.65h-160.584v-532.868h160.584v151.65h-80.292c-14.138 0-25.6 11.462-25.6 25.6v178.369c0 14.138 11.462 25.6 25.6 25.6h80.292zM694.44 366.351h-98.884v-355.618c0-14.138-11.462-25.6-25.6-25.6h-485.922c-14.138 0-25.6 11.462-25.6 25.6v381.218c0 14.138 11.462 25.6 25.6 25.6h124.483v426.486c0 14.138 11.462 25.6 25.6 25.6h485.923c14.138 0 25.6-11.462 25.6-25.6v-223.637h186.184c14.138 0 25.6-11.462 25.6-25.6v-584.068c0-14.138-11.462-25.6-25.6-25.6h-211.784c-14.138 0-25.6 11.462-25.6 25.6v355.618zM417.188 659.285l48.954 24.305c6.943 3.447 15.075 3.563 22.113 0.314l56.101-25.897v158.53h-127.169v-157.252zM851.532 366.351v-127.169h53.987v127.169h-53.987zM259.718 254.874l48.954 24.305c6.943 3.447 15.075 3.563 22.113 0.314l56.101-25.897v112.755h-127.169v-111.477z" />
<glyph unicode="&#xe93b;" glyph-name="Task-courier" data-tags="Task - courier" d="M452.267 598.906h119.467v183.467h-119.467v-183.467zM896 598.906c9.426 0 17.067 7.641 17.067 17.067v149.333c0 9.426-7.641 17.067-17.067 17.067h-273.067v-183.467h273.067zM128 598.906h273.067v183.467h-273.067c-9.426 0-17.067-7.641-17.067-17.067v-149.333c0-9.426 7.641-17.067 17.067-17.067zM921.6 552.668v-427.362c0-37.703-30.564-68.267-68.267-68.267h-682.667c-37.703 0-68.267 30.564-68.267 68.267v427.362c-25.018 10.127-42.667 34.655-42.667 63.304v149.333c0 37.703 30.564 68.267 68.267 68.267h768c37.703 0 68.267-30.564 68.267-68.267v-149.333c0-28.65-17.648-53.177-42.667-63.304zM870.4 547.706h-716.8v-422.4c0-9.426 7.641-17.067 17.067-17.067h682.667c9.426 0 17.067 7.641 17.067 17.067v422.4zM217.414 455.973c0 14.138 11.462 25.6 25.6 25.6h367.304c14.138 0 25.6-11.462 25.6-25.6v-256c0-14.138-11.462-25.6-25.6-25.6h-367.304c-14.138 0-25.6 11.462-25.6 25.6v256zM268.614 430.373v-204.8h316.104v204.8h-316.104zM340.39 342.41c-14.138 0-25.6 11.462-25.6 25.6s11.462 25.6 25.6 25.6h133.365c14.138 0 25.6-11.462 25.6-25.6s-11.462-25.6-25.6-25.6h-133.365zM340.39 259.967c-14.138 0-25.6 11.462-25.6 25.6s11.462 25.6 25.6 25.6h66.682c14.138 0 25.6-11.462 25.6-25.6s-11.462-25.6-25.6-25.6h-66.682z" />
<glyph unicode="&#xe93c;" glyph-name="Task-food" data-tags="Task - food" d="M484.559 78.117h-287.613c-61.267 0-110.933 49.667-110.933 110.933v84.925h-5.626c-14.138 0-25.6 11.462-25.6 25.6s11.462 25.6 25.6 25.6h5.626v154.417h-5.626c-14.138 0-25.6 11.462-25.6 25.6s11.462 25.6 25.6 25.6h5.626v170.258c0 14.138 11.462 25.6 25.6 25.6h76.252v20.016c0 61.267 49.667 110.933 110.933 110.933h137.629c61.267 0 110.933-49.667 110.933-110.933v-20.016h76.252c14.138 0 25.6-11.462 25.6-25.6v-170.258h6.493c14.138 0 25.6-11.462 25.6-25.6s-11.462-25.6-25.6-25.6h-6.493v-91.326h294.4c14.138 0 25.6-11.462 25.6-25.6 0-13.847-10.994-25.126-24.728-25.585l-29.062-203.436c-7.807-54.651-54.612-95.245-109.818-95.245h-235.982c-33.873 0-64.583 15.282-85.063 39.717zM649.213 337.067h-166.75l28.026-196.181c0.573-4.009 1.535-7.877 2.845-11.568 8.309-23.409 30.611-39.717 56.288-39.717h235.982c29.726 0 54.929 21.858 59.133 51.286l28.026 196.181h-243.55zM598.013 388.267v91.326h-460.8v-154.417h295.229l-1.732 12.125c-12.496 1.695-22.127 12.406-22.127 25.366 0 14.138 11.462 25.6 25.6 25.6h163.83zM439.757 273.976h-302.544v-84.925c0-32.99 26.744-59.733 59.733-59.733h263.562c-0.262 1.432-0.497 2.875-0.705 4.328l-20.047 140.331zM137.213 530.792h460.8v144.658h-460.8v-144.658zM239.065 726.651h257.096v20.016c0 32.99-26.744 59.733-59.733 59.733h-137.629c-32.99 0-59.733-26.744-59.733-59.733v-20.016zM805.56 284.778c1.598 14.048 14.281 24.141 28.329 22.543s24.141-14.281 22.543-28.329l-5.38-47.304c-1.598-14.048-14.281-24.141-28.329-22.543s-24.141 14.281-22.543 28.329l5.38 47.304z" />
<glyph unicode="&#xe93d;" glyph-name="Task-forgot" data-tags="Task - forgot" d="M865.536 505.326c4.382 0.984 8.992 0.809 13.359-0.577l102.869-32.659c12.793-4.062 20.277-17.314 17.148-30.367l-24.647-102.826c-2.76-11.514-13.055-19.633-24.895-19.633h-53.621l-15.999-38.129c-2.728-6.501-7.928-11.43-14.215-13.911v-39.668c0-49.485-40.115-89.6-89.6-89.6h-42.052c-15.48-32.791-40.729-60.902-73.599-79.879-87.071-50.27-198.407-20.438-248.677 66.633-2.516 4.358-4.832 8.777-6.949 13.246h-212.658c-49.485 0-89.6 40.115-89.6 89.6v497.778c0 49.485 40.115 89.6 89.6 89.6h561.778c14.138 0 25.6-11.462 25.6-25.6v-94.478c47.89-1.809 86.158-41.203 86.158-89.535v-99.994zM855.092 441.518c-1.516-1.115-3.159-2.068-4.903-2.831l-189.878-109.626c-7.914-4.569-17.664-4.573-25.581-0.011-40.227 23.18-89.954 23.629-130.889-0.004-62.582-36.132-84.024-116.155-47.892-178.737s116.155-84.024 178.737-47.892c40.935 23.634 65.409 66.923 65.448 113.351 0.008 9.138 4.886 17.58 12.8 22.149l35.85 20.698 18.111 44.956c4.061 10.081 14.046 16.499 24.903 16.008l47.655-2.157 15.671 37.347c3.99 9.508 13.295 15.695 23.606 15.695h50.453l14.39 60.033-69.405 22.035-19.074-11.013zM814.336 477.108v128.212c0 21.208-17.192 38.4-38.4 38.4h-19.852c-0.759-0.068-1.528-0.102-2.306-0.102h-600.178v-416.062c0-21.208 17.192-38.4 38.4-38.4h197.119c-10.554 71.683 22.558 145.801 89.121 184.231 52.45 30.282 115.339 32.132 168.633 7.037l167.463 96.685zM749.373 189.156h26.563c21.208 0 38.4 17.192 38.4 38.4v39.75l-6.73 0.305-14.63-36.317c-2.138-5.306-5.991-9.744-10.946-12.604l-31.334-18.091c-0.321-3.838-0.763-7.654-1.322-11.442zM728.178 694.92v68.814h-536.178c-21.208 0-38.4-17.192-38.4-38.4v-30.414h574.578zM532.297 176.109c-23.804 0-43.101 19.297-43.101 43.101s19.297 43.101 43.101 43.101c23.804 0 43.101-19.297 43.101-43.101s-19.297-43.101-43.101-43.101z" />
<glyph unicode="&#xe93e;" glyph-name="Task-laundry" data-tags="Task - laundry" d="M349.127 98.069h-130.13c-14.51 0-26.12 12.048-25.582 26.548l15.973 431.148-52.489-22.613c-12.115-5.219-26.213-0.378-32.565 11.183l-82.771 150.645c-6.956 12.66-2.066 28.564 10.8 35.13l286.157 146.025c14.184 7.238 31.463-0.091 36.118-15.319 20.037-65.554 52.416-95.086 99.631-95.086 47.3 0 80.086 29.644 100.788 95.301 4.831 15.324 22.42 22.461 36.563 14.836l305.159-164.509c13.129-7.078 17.452-23.836 9.384-36.381l-93.636-145.6c-7.439-11.567-22.687-15.19-34.534-8.205l-48.23 28.437 5.578-171.47h111.154c49.485 0 89.6-40.115 89.6-89.6v-21.77c0-25.071-10.297-47.737-26.893-64 16.596-16.263 26.893-38.929 26.893-64v-21.77c0-49.485-40.115-89.6-89.6-89.6h-429.771c-42.99 0-78.908 30.276-87.596 70.669zM347.732 149.269c2.435 20.866 12.040 39.542 26.284 53.501-16.596 16.263-26.893 38.929-26.893 64v21.77c0 49.485 40.115 89.6 89.6 89.6h267.39l-7.037 216.335c-0.656 20.173 21.202 33.136 38.589 22.885l67.118-39.574 65.357 101.628-254.885 137.406c-28.65-66.742-75.532-102.289-138.987-102.289-63.633 0-110.325 35.749-138.362 102.791l-236.761-120.819 58.859-107.125 68.337 29.44c17.274 7.442 36.408-5.662 35.711-24.459l-16.49-445.090h102.168zM436.723 177.17c-21.208 0-38.4-17.192-38.4-38.4v-21.77c0-21.208 17.192-38.4 38.4-38.4h429.771c21.208 0 38.4 17.192 38.4 38.4v21.77c0 21.208-17.192 38.4-38.4 38.4h-429.771zM866.495 228.37c21.208 0 38.4 17.192 38.4 38.4v21.77c0 21.208-17.192 38.4-38.4 38.4h-429.771c-21.208 0-38.4-17.192-38.4-38.4v-21.77c0-21.208 17.192-38.4 38.4-38.4h429.771z" />
<glyph unicode="&#xe93f;" glyph-name="Task-other" data-tags="Task - other" d="M177.542 309.317c-78.94 0-142.933 63.993-142.933 142.933s63.993 142.933 142.933 142.933c78.94 0 142.933-63.993 142.933-142.933s-63.993-142.933-142.933-142.933zM177.542 360.517c50.663 0 91.733 41.070 91.733 91.733s-41.070 91.733-91.733 91.733c-50.663 0-91.733-41.070-91.733-91.733s41.070-91.733 91.733-91.733zM177.542 486.814c19.089 0 34.564-15.475 34.564-34.564s-15.475-34.564-34.564-34.564c-19.089 0-34.564 15.475-34.564 34.564s15.475 34.564 34.564 34.564zM844.563 309.317c-78.94 0-142.933 63.993-142.933 142.933s63.993 142.933 142.933 142.933c78.94 0 142.933-63.993 142.933-142.933s-63.993-142.933-142.933-142.933zM844.563 360.517c50.663 0 91.733 41.070 91.733 91.733s-41.070 91.733-91.733 91.733c-50.663 0-91.733-41.070-91.733-91.733s41.070-91.733 91.733-91.733zM844.563 486.814c19.089 0 34.564-15.475 34.564-34.564s-15.475-34.564-34.564-34.564c-19.089 0-34.564 15.475-34.564 34.564s15.475 34.564 34.564 34.564zM379.733 554.667c0 14.138 11.462 25.6 25.6 25.6h213.333c14.138 0 25.6-11.462 25.6-25.6v-213.333c0-14.138-11.462-25.6-25.6-25.6h-213.333c-14.138 0-25.6 11.462-25.6 25.6v213.333zM430.933 529.067v-162.133h162.133v162.133h-162.133zM483.001 436.068v23.865c0 9.426 7.641 17.067 17.067 17.067h23.865c9.426 0 17.067-7.641 17.067-17.067v-23.865c0-9.426-7.641-17.067-17.067-17.067h-23.865c-9.426 0-17.067 7.641-17.067 17.067z" />
<glyph unicode="&#xe940;" glyph-name="Task-repair" data-tags="Task - repair" d="M617.319 888.542l-388.931-61.601c-9.31-1.474-15.661-10.217-14.187-19.526l18.42-116.297 155.724-118.067c7.537-5.714 11.309-15.118 9.81-24.457l-8.422-52.468 41.709-26.756c6.149-3.944 10.319-10.328 11.462-17.543l9.329-58.902 89.92-71.33c11.077-8.787 12.933-24.889 4.146-35.966s-24.889-12.933-35.966-4.146l-97.735 77.529c-5.026 3.987-8.372 9.715-9.375 16.051l-9.093 57.412-46.154 29.608c-8.57 5.498-13.067 15.552-11.454 25.605l8.644 53.848-100.98 76.561 74.681-471.517c0.179 0.032 0.359 0.063 0.54 0.091l496.727 78.674-104.665 660.829c-1.474 9.31-10.217 15.661-19.526 14.187l-9.832-1.557-61.205-107.329c-2.453-4.302-6.102-7.8-10.503-10.071l-79.896-41.208 13.138-82.947c2.212-13.964-7.316-27.078-21.28-29.29s-27.078 7.316-29.29 21.28l-16.032 101.222c-1.728 10.908 3.735 21.694 13.55 26.757l89.596 46.211 37.13 65.112zM326.874 96.023l14.143-89.293c1.474-9.31 10.217-15.661 19.526-14.187l463.555 73.42c9.31 1.474 15.661 10.217 14.187 19.526l-14.142 89.287-496.727-78.674c-0.181-0.029-0.361-0.055-0.542-0.080zM183.669 672.892c-0.004 0.027-0.009 0.055-0.013 0.082l-20.025 126.432c-5.898 37.238 19.508 72.207 56.747 78.105l463.555 73.42c37.238 5.898 72.207-19.508 78.105-56.747l126.816-800.686c5.898-37.238-19.508-72.207-56.747-78.105l-463.555-73.42c-37.238-5.898-72.207 19.508-78.105 56.747l-106.778 674.172zM553.544 54.133c-13.964-2.212-27.078 7.316-29.29 21.28s7.316 27.078 21.28 29.29l62.885 9.96c13.964 2.212 27.078-7.316 29.29-21.28s-7.316-27.078-21.28-29.29l-62.885-9.96zM158.336 289.263c13.889 2.646 27.293-6.468 29.939-20.356s-6.468-27.293-20.356-29.939l-33.196-6.325c-13.889-2.646-27.293 6.468-29.939 20.356s6.468 27.293 20.356 29.939l33.196 6.325zM845.934 862.511c10.034 9.96 26.243 9.9 36.204-0.135s9.9-26.243-0.135-36.204l-23.984-23.806c-10.034-9.96-26.243-9.9-36.204 0.135s-9.9 26.243 0.134 36.204l23.984 23.806zM905.846 796.998c13.776 3.18 27.522-5.409 30.703-19.185s-5.409-27.522-19.185-30.703l-33.351-7.7c-13.776-3.18-27.522 5.409-30.703 19.185s5.409 27.522 19.185 30.703l33.351 7.7zM894.229 662.425l-31.992 10.883c-13.385 4.553-20.545 19.095-15.992 32.481s19.095 20.545 32.481 15.992l31.992-10.883c13.385-4.553 20.545-19.095 15.992-32.481s-19.095-20.545-32.481-15.992zM169.913 211.405c12.391 6.808 27.956 2.283 34.764-10.108s2.283-27.956-10.108-34.764l-29.617-16.273c-12.391-6.808-27.956-2.283-34.764 10.108s-2.283 27.956 10.108 34.764l29.617 16.273z" />
<glyph unicode="&#xe941;" glyph-name="CombinedShape" data-tags="Combined Shape" horiz-adv-x="1081" d="M1047.381 960c15.709 0 28.444-12.735 28.444-28.444v0-352.711c0-15.709-12.735-28.444-28.444-28.444v0l-49.892 0.057v-559.445c0-13.964-10.062-25.578-23.332-27.986l-5.113-0.458h-862.208c-15.709 0-28.444 12.735-28.444 28.444v0 559.445l-49.948-0.057c-13.964 0-25.578 10.062-27.986 23.332l-0.458 5.113v352.711c0 15.709 12.735 28.444 28.444 28.444v0zM940.601 550.4h-805.319v-530.944h805.319v530.944zM1018.937 903.111h-962.048v-295.822h962.048v295.822zM833.764 783.644c15.709 0 28.444-12.735 28.444-28.444 0-13.964-10.062-25.578-23.332-27.986l-5.113-0.458h-623.275c-15.709 0-28.444 12.735-28.444 28.444 0 13.964 10.062 25.578 23.332 27.986l5.113 0.458h623.275z" />
<glyph unicode="&#xe942;" glyph-name="BillIcon" data-tags="BillIcon" horiz-adv-x="967" d="M858.453 960c34.873 0 63.204-29.468 63.204-65.764v-958.236h-0.057l-174.933 114.916-142.905-93.867-142.962 93.867-142.962-93.867-142.905 93.867-174.933-114.916v958.236c0 36.295 28.331 65.764 63.204 65.764h795.25zM857.6 893.497h-793.543v-836.779l110.933 72.932 142.905-93.867 142.905 93.867 142.962-93.867 142.905 93.867 110.933-72.932v836.779zM716.8 396.8v-56.889h-512v56.889h512zM716.8 652.8v-56.889h-512v56.889h512z" />
<glyph unicode="&#xe943;" glyph-name="infoicon" data-tags="info icon" d="M512 960c282.77 0 512-229.23 512-512s-229.23-512-512-512c-282.77 0-512 229.23-512 512s229.23 512 512 512zM512 883.2c-240.354 0-435.2-194.846-435.2-435.2s194.846-435.2 435.2-435.2c240.354 0 435.2 194.846 435.2 435.2s-194.846 435.2-435.2 435.2zM560 544v-384h-96v384h96zM560 704v-96h-96v96h96z" />
<glyph unicode="&#xe944;" glyph-name="ElectricalShop" data-tags="ElectricalShop" d="M259.062 771.216c9.064 7.4 22.41 6.051 29.81-3.013l107.539-131.727 107.541 131.727c7.401 9.064 20.745 10.413 29.809 3.013s10.413-20.746 3.016-29.81l-95.719-117.245h441.626c11.702 0 21.186-9.485 21.186-21.184v-417.534c0-11.698-9.484-21.186-21.186-21.186h-724.641c-11.701 0-21.186 9.488-21.186 21.186v417.534c0 11.699 9.485 21.184 21.186 21.184h193.722l-95.717 117.245c-7.4 9.064-6.051 22.41 3.013 29.81zM396.412 581.787l-0.152 0.004h-217.030v-375.162h682.268v375.162l-465.087-0.004zM365.451 515.972c-67.419 0-122.244-54.42-122.244-121.764 0-67.34 54.826-121.761 122.244-121.761s122.244 54.42 122.244 121.761c0 67.344-54.826 121.764-122.244 121.764zM285.579 394.208c0 4.198 0.328 8.319 0.96 12.341h27.963c11.701 0 21.186 9.484 21.186 21.186 0 11.698-9.485 21.186-21.186 21.186h-6.928c14.536 15.191 35.069 24.678 57.878 24.678 44.209 0 79.872-35.639 79.872-79.392 0-2.052-0.081-4.089-0.233-6.105-0.177 0.004-0.353 0.007-0.53 0.007h-27.652c-11.702 0-21.186-9.484-21.186-21.186s9.484-21.186 21.186-21.186h11.801c-14.59-18.792-37.471-30.918-63.258-30.918-44.208 0-79.872 35.639-79.872 79.388zM577.575 491.312c-11.702 0-21.186-9.488-21.186-21.186 0-11.702 9.484-21.186 21.186-21.186h171.626c11.698 0 21.186 9.484 21.186 21.186 0 11.698-9.488 21.186-21.186 21.186h-171.626zM556.389 394.208c0 11.702 9.484 21.186 21.186 21.186h171.626c11.698 0 21.186-9.484 21.186-21.186s-9.488-21.186-21.186-21.186h-171.626c-11.702 0-21.186 9.484-21.186 21.186zM577.575 339.481c-11.702 0-21.186-9.484-21.186-21.186s9.484-21.186 21.186-21.186h171.626c11.698 0 21.186 9.484 21.186 21.186s-9.488 21.186-21.186 21.186h-171.626zM374.131 448.922c-11.698 0-21.185-9.488-21.185-21.186 0-11.702 9.486-21.186 21.185-21.186h27.655c11.698 0 21.186 9.484 21.186 21.186 0 11.698-9.488 21.186-21.186 21.186h-27.655zM307.099 366.924c0 11.702 9.485 21.186 21.186 21.186h27.654c11.698 0 21.186-9.484 21.186-21.186s-9.488-21.186-21.186-21.186h-27.654c-11.701 0-21.186 9.484-21.186 21.186z" />
<glyph unicode="&#xe945;" glyph-name="Documents" data-tags="Documents" d="M260.537 815.917c0 11.701 9.485 21.186 21.186 21.186h328.641c5.621 0 11.010-2.232 14.982-6.205l149.384-149.383c3.972-3.973 6.204-9.362 6.204-14.981v-154.817l80.151-53.142c5.985-3.969 9.523-10.674 9.477-17.782v-328.52c0-11.702-9.484-21.186-21.186-21.186h-657.283c-11.701 0-21.186 9.484-21.186 21.186v328.7c0.017 7.041 3.545 13.669 9.479 17.602l80.15 53.142v304.2zM780.934 433.078l24.873 11.306-24.873 16.493v-27.8zM738.562 638.011h-136.587c-11.702 0-21.186 9.485-21.186 21.186v135.534h-277.879v-380.911l217.827-99.014 217.826 99.014v224.191zM715.938 680.383l-92.778 92.778v-92.778h92.778zM260.537 460.878l-24.873-16.493 24.873-11.306v27.8zM386.292 680h85.373c11.702 0 21.186-9.485 21.186-21.186s-9.484-21.186-21.186-21.186h-85.373c-11.702 0-21.186 9.485-21.186 21.186s9.484 21.186 21.186 21.186zM386.292 538.137h265.679c11.702 0 21.186-9.484 21.186-21.186 0-11.698-9.484-21.186-21.186-21.186h-265.679c-11.702 0-21.186 9.488-21.186 21.186 0 11.702 9.484 21.186 21.186 21.186zM365.148 430.663c0-11.702 9.484-21.186 21.186-21.186h265.636c11.702 0 21.186 9.484 21.186 21.186s-9.484 21.186-21.186 21.186h-265.636c-11.702 0-21.186-9.484-21.186-21.186zM213.28 408.011v-274.552h614.91v274.552l-298.687-135.765c-5.572-2.532-11.963-2.532-17.535 0l-298.688 135.765z" />
<glyph unicode="&#xe946;" glyph-name="MedicalShop" data-tags="MedicalShop" d="M408.025 757.893c0 66.84 54.184 121.025 121.026 121.025 66.839 0 121.023-54.185 121.023-121.025v-140.141l114.314-115.89c17.129-17.366 26.642-40.833 26.44-65.222l-2.454-299.449c-0.417-50.684-41.829-91.443-92.51-91.051l-345.198 2.659c-50.426 0.388-91.1 41.373-91.1 91.803v297.295c0 25.19 10.351 49.276 28.628 66.609l119.831 113.66v139.726zM450.398 716.337h157.304v-107.275c0-5.57 2.193-10.912 6.105-14.877l120.412-122.078c0.325-0.328 0.643-0.66 0.957-0.996h-420.415c0.828 0.915 1.693 1.797 2.594 2.652l126.44 119.928c4.216 4.001 6.603 9.559 6.603 15.372v107.275zM301.939 428.738v-288.136c0-27.154 21.901-49.226 49.054-49.434l345.196-2.659c27.291-0.208 49.59 21.737 49.812 49.028l2.391 291.201h-446.453zM529.051 836.546c43.167 0 78.209-34.774 78.647-77.837h-157.297c0.438 43.063 35.483 77.837 78.65 77.837zM517.823 408.445c-83.195 0-150.634-67.443-150.634-150.637s67.439-150.637 150.634-150.637c83.195 0 150.637 67.443 150.637 150.637s-67.443 150.637-150.637 150.637zM409.561 257.808c0 59.791 48.471 108.265 108.262 108.265 59.795 0 108.265-48.474 108.265-108.265s-48.471-108.265-108.265-108.265c-59.791 0-108.262 48.474-108.262 108.265zM441.588 257.808c0 11.702 9.484 21.186 21.186 21.186h33.863v35.434c0 11.702 9.488 21.186 21.186 21.186 11.702 0 21.186-9.484 21.186-21.186v-35.434h33.863c11.702 0 21.186-9.484 21.186-21.186s-9.484-21.186-21.186-21.186h-33.863v-35.437c0-11.698-9.484-21.186-21.186-21.186-11.698 0-21.186 9.488-21.186 21.186v35.437h-33.863c-11.702 0-21.186 9.484-21.186 21.186z" />
<glyph unicode="&#xe947;" glyph-name="AppStore" data-tags="AppStore" horiz-adv-x="878" d="M618.974 960c4.547-59.449-14.229-118.331-52.34-164.142-36.974-46.049-92.999-72.573-152.005-71.965-3.752 57.738 15.57 114.601 53.711 158.065 38.625 44.053 92.409 71.918 150.633 78.041zM805.573 610.676c-67.869-41.784-109.64-115.471-110.666-195.246 0.097-90.255 54.075-171.707 137.092-206.863-15.967-51.939-40.031-101.018-71.307-145.423-42.002-62.917-86.041-124.379-155.938-125.513-33.242-0.768-55.681 8.799-79.064 18.776-24.39 10.401-49.805 21.248-89.576 21.248-42.179 0-68.732-11.191-94.341-21.987-22.131-9.326-43.557-18.352-73.754-19.61-66.566-2.465-117.439 67.145-160.968 129.47-87.002 127.276-154.748 358.683-63.924 516.138 42.65 76.742 122.394 125.439 210.056 128.275 37.753 0.778 73.98-13.793 105.742-26.567 24.29-9.77 45.968-18.488 63.719-18.488 15.605 0 36.678 8.375 61.237 18.134 38.687 15.375 86.023 34.186 134.261 29.117 74.956-2.349 144.421-39.951 187.429-101.462z" />
<glyph unicode="&#xe948;" glyph-name="PlayStore" data-tags="PlayStore" d="M111.206 870.59l-60.005 30.247v-905.571l60.505 30.492 416.933 422.126-417.434 422.706zM668.451 589.535l-425.134 214.395 318.425-322.467 106.709 108.072zM948.87 448.050l-236.115 119.154-117.809-119.32 117.609-119.072 236.316 119.238zM668.251 306.481l-106.509 107.822-317.825-321.883 424.334 214.061z" />
<glyph unicode="&#xe949;" glyph-name="Radio_Button_Tick" data-tags="Radio_Button_Tick" d="M989.918 826.474c43.759-43.142 45.633-115.032 4.173-160.572l-538.922-592.034c-20.297-22.297-48.403-35.088-77.914-35.46s-57.906 11.709-78.715 33.489l-266.793 279.237c-42.501 44.484-42.304 116.4 0.44 160.63s111.848 44.026 154.35-0.458l187.503-196.249 461.584 507.074c41.455 45.54 110.535 47.485 154.294 4.344z" />
<glyph unicode="&#xe94a;" glyph-name="Trendingicon" data-tags="Trending icon" d="M743.255 662.152l23.67-88.334c7.316-27.313 35.395-43.522 62.705-36.204 27.315 7.319 43.525 35.394 36.204 62.707l-49.331 184.11c-10.808 40.334-52.265 64.271-92.6 53.463l-184.11-49.332c-27.315-7.319-43.523-35.394-36.204-62.707s35.395-43.523 62.705-36.204l88.248 23.646-134.062-232.203-132.022 76.223c-36.163 20.879-82.404 8.488-103.283-27.675l-184.396-319.38c-14.138-24.489-5.748-55.803 18.741-69.944 24.488-14.136 55.802-5.745 69.94 18.744l171 296.178 132.023-76.222c36.163-20.879 82.402-8.489 103.281 27.674l147.492 255.46z" />
<glyph unicode="&#xe94b;" glyph-name="Popularsearches" data-tags="Popular searches" d="M899.19 631.923l73.559-42.468-106.173-183.895c-11.74-20.337-55.987-16.712-76.329-4.972l-165.576 95.599 42.465 73.558 88.013-50.813c-14.469 52.145-42.772 99.527-83.313 137.35-58.092 54.136-133.791 82.444-213.13 79.652-79.353-2.734-152.87-36.298-206.984-94.354-54.178-58.166-82.407-133.815-79.674-213.169 2.755-79.314 36.319-152.832 94.391-207.007 58.071-54.17 133.867-82.483 213.226-79.657l3.077-85.043c-101.986-3.543-199.039 32.63-273.724 102.277-74.706 69.612-117.207 163.835-120.766 265.882-3.566 101.948 33.823 198.642 103.566 273.321 69.592 74.669 166.433 116.442 268.441 120.023 102.046 3.559 203.929-35.453 278.635-105.065 47.913-44.677 59.325-86.232 111.606-165.552l48.691 84.334zM719.918 598.394c-13.327 21.012-29.404 40.464-48.082 57.888-58.092 54.136-133.791 82.444-213.13 79.652-79.353-2.734-152.87-36.298-206.984-94.354-54.178-58.166-82.407-133.815-79.674-213.169 2.755-79.314 36.319-152.832 94.391-207.007 58.071-54.17 133.867-82.483 213.226-79.657l3.077-85.043c-17.266-0.599-34.392-0.061-51.291 1.587-82.917 8.079-160.393 42.834-222.433 100.69-74.706 69.612-117.207 163.835-120.766 265.882-3.566 101.948 33.823 198.642 103.566 273.321 69.592 74.669 166.433 116.442 268.441 120.023 102.046 3.559 203.929-35.453 278.635-105.065 30.822-28.743 46.541-56.193 67.753-93.237 4.152-7.251 8.515-14.87 13.24-22.939 8.663-14.783 18.55-31.075 30.612-49.377l48.691 84.334 73.559-42.468-106.173-183.895c-11.74-20.337-55.987-16.712-76.329-4.972l-165.576 95.599 42.465 73.558 88.013-50.813c-7.803 28.124-19.63 54.862-35.231 79.462zM808.443 518.364l34.191-51.874-13.373-23.159-20.818 75.033zM407.4 552.647h102.4v-148.31l128.28-54.979-40.335-94.121-190.345 81.577v215.833z" />
<glyph unicode="&#xe94c;" glyph-name="pause-solid" data-tags="pause-solid" d="M156.563 79.934c-96.331 93.11-156.103 223.442-156.103 367.785 0 282.396 228.913 511.31 511.31 511.31 144.343 0 274.676-59.772 367.632-155.949l0.153-0.153c88.815-91.831 143.525-217.153 143.525-355.207 0-282.396-228.913-511.31-511.31-511.31-138.054 0-263.376 54.71-355.36 143.678l0.153-0.153zM364.666 645.954v-409.048h102.262v409.048h-102.262zM569.19 645.954v-409.048h102.262v409.048h-102.262z" />
<glyph unicode="&#xe94d;" glyph-name="mute" data-tags="mute" d="M895.902 786.151c-11.725 12.972-31.744 14.024-44.758 2.29l-101.097-91.217v91.455c0 11.451-6.163 21.991-16.137 27.605-9.947 5.615-22.184 5.429-31.981-0.522l-295.539-171.531h-157.109c-17.508 0-31.691-14.183-31.691-31.691v-354.418c0-8.513 3.413-16.216 8.86-21.9l-76.352-68.911c-12.989-11.725-14.024-31.767-2.308-44.758 6.26-6.931 14.882-10.459 23.537-10.459 7.569 0 15.147 2.686 21.222 8.159l701.045 621.141c13.014 11.734 14.043 31.779 2.318 44.768l-0.009-0.013zM407.885 226.425l295.854-147.214c4.589-2.388 9.612-3.575 14.62-3.575 5.702 0 11.394 1.55 16.454 4.599 9.453 5.739 15.234 16.012 15.234 27.094v420.105l-346.243-300.995 4.081-0.014z" />
<glyph unicode="&#xe94e;" glyph-name="Pause" data-tags="Pause" d="M192 896h128c35.346 0 64-28.654 64-64v-768c0-35.346-28.654-64-64-64h-128c-35.346 0-64 28.654-64 64v768c0 35.346 28.654 64 64 64zM704 896h128c35.346 0 64-28.654 64-64v-768c0-35.346-28.654-64-64-64h-128c-35.346 0-64 28.654-64 64v768c0 35.346 28.654 64 64 64z" />
<glyph unicode="&#xe94f;" glyph-name="Play" data-tags="Play" d="M256 826.84c0 53.664 62.076 83.499 103.981 49.975l473.549-378.84c32.026-25.621 32.026-74.33 0-99.951l-473.549-378.837c-41.905-33.53-103.981-3.693-103.981 49.971v757.682z" />
<glyph unicode="&#xe950;" glyph-name="uniE950" data-tags="uniE950" d="M1008.485 448c0-274.201-222.284-496.485-496.485-496.485s-496.485 222.284-496.485 496.485c0 274.201 222.284 496.485 496.485 496.485s496.485-222.284 496.485-496.485z" />
<glyph unicode="&#xe951;" glyph-name="uniE951" data-tags="uniE951" d="M1008.485 448c0-274.201-222.284-496.485-496.485-496.485s-496.485 222.284-496.485 496.485c0 274.201 222.284 496.485 496.485 496.485s496.485-222.284 496.485-496.485z" />
<glyph unicode="&#xe952;" glyph-name="uniE952" data-tags="uniE952" d="M445.722 256.375l253.133 158.208c29.168 18.232 29.168 60.711 0 78.941l-253.133 158.21c-31.002 19.375-71.215-2.912-71.215-39.471v-316.418c0-36.558 40.212-58.846 71.215-39.471z" />
</font>
</defs>
</svg>
